За последнюю неделю опубликовано 59 новых материалов.
Инструкция новичку Путеводитель по форуму Прокси для Telegram Показать подсказки , это бомба!

Скачать Не послать ли нам... гонца? (1998) DVDRip-AVC от KORSAR бесплатно через торрент

  • Поучаствуй (в качестве покупателя) в любых пяти совместных покупках (кроме завершённых и "Моментальных") и получи группу "Новичок" навсегда -> ссылка на раздел
  • Получай до 480 рублей за каждого приглашенного пользователя!
    представляем Вам очередное расширение партнерской программы, подробности описаны тут -> ссылка
  • 90% материалов доступно к скачиванию после простой регистрации!
    Если же ты хочешь скачивать материалы без требования оставлять отзывы то получи группу "Новичок", 10 способов повышения описаны тут -> ссылка
  • К сожалению количество битых ссылок растет и мы уже не можем их оперативно восстанавливать поэтому просим помощи у каждого нашего пользователя.
    С сегодняшнего дня, за каждую восстановленную ссылку мы заплатим Вам.
    Подробнее тут -> ссылка
  • Перенесем твои заслуги с другого ресурса!
    Мы понимаем как сложно прокачивать аккаунты на форумах, вроде раскачал аккаунт, а тут появляется ресурс в 100 раз круче но тоже с системой прокачки и снова качать аккаунт...
    Предлагаем вам перенести Ваши заслуги на другом подобном ресурсе к нам.
    Подробности описаны тут -> ссылка
  • Вы можете получать по 2.5% с каждой покупки и продажи на маркете! Подробности в теме Партнёрская программа
Если Вы не хотите скачивать, Вы всегда можетепосмотретьонлайн, просто нажмите кнопку ниже :

Открыть плеер

Torrent_Bot

Торрент-Бот
Бот форума
4 Окт 2016
92
163
20


Не послать ли нам... гонца?
Жанр: драма, комедия, детектив, приключения
Год выпуска: 1998
Режиссер: Валерий Чиков
В ролях: Михаил Евдокимов, Лев Дуров, Ирина Розанова, Любовь Соколова, Саша Комков, Александр Казаков, Александр Кузьмичев, Магомед Льянов, Николай Руманов, Гаджи Исмайлов, Николай Трофимов, Иван Бортник, Ольга Будина, Юрий Дуванов

О фильме:
Разоренный банкирами фермер едет в Москву к президенту в поисках правды. По дороге он спасает бизнесмена, выручает влюбленного солдата, помогает старикам, попадает «под раздачу» в милиции, а потом пытается въехать в Кремль на «Запорожце». Но правды, естественно, не находит…



Страна: Россия
Производство: Театр Михаила Евдокимова
Продолжительность: 01:39:05
Перевод: Не требуется


Файл
Формат: MKV
Качество: DVDRip-AVC
Видео: MPEG-4 AVC, [email protected], 25 fps, 2786 Кбит/с
Аудио: Русский, AC3, 2 ch, 192 Кбит/с
Cубтитры: нет
Навигация по главам: есть

Mediainfo
x264 [info]: frame I:872 Avg QP:17.37 size: 79118
x264 [info]: frame P:33315 Avg QP:18.87 size: 35269
x264 [info]: frame B:114439 Avg QP:21.03 size: 7224
x264 [info]: consecutive B-frames: 2.2% 2.8% 7.6% 19.6% 25.0% 36.9% 4.1% 0.9% 0.5% 0.2% 0.1%

General
Unique ID : 331453871224116159515243943069921648008 (0xF95BB18E492CC1F9BF9C6D96B3A51D88)
Complete name : S:FILMSНе послать ли нам... гонца (1998) DVDRip-AVC - KORSAR.mkv.mkv
Format : Matroska
Format version : Version 4 / Version 2
File size : 2.06 GiB
Duration : 1 h 39 min
Overall bit rate : 2 980 kb/s
Movie name : Не послать ли нам... гонца? (1998)_rip_by_Cthulhu
Encoded date : UTC 2020-05-22 11:03:49
Writing application : mkvmerge v46.0.0 ('No Deeper Escape') 64-bit
Writing library : libebml v1.3.10 + libmatroska v1.5.2
Cover : Yes
Attachments : cover13.jpg

Video
ID : 1
Format : AVC
Format/Info : Advanced Video Codec
Format profile : [email protected]
Format settings : CABAC / 16 Ref Frames
Format settings, CABAC : Yes
Format settings, ReFrames : 16 frames
Codec ID : V_MPEG4/ISO/AVC
Duration : 1 h 39 min
Bit rate : 2 786 kb/s
Width : 694 pixels
Height : 572 pixels
Display aspect ratio : 1.294
Frame rate mode : Constant
Frame rate : 25.000 FPS
Color space : YUV
Chroma subsampling : 4:2:0
Bit depth : 8 bits
Scan type : Progressive
Bits/(Pixel*Frame) : 0.281
Stream size : 1.93 GiB (93%)
Writing library : x264 core 152 r2851kMod ba24899
Encoding settings : cabac=1 / ref=16 / deblock=1:-1:-1 / analyse=0x3:0x133 / me=umh / subme=10 / psy=1 / fade_compensate=0.00 / psy_rd=1.05:0.15 / mixed_ref=1 / me_range=32 / chroma_me=1 / trellis=2 / 8x8dct=1 / cqm=0 / deadzone=21,11 / fast_pskip=0 / chroma_qp_offset=-3 / threads=18 / lookahead_threads=4 / sliced_threads=0 / nr=0 / decimate=1 / interlaced=0 / bluray_compat=0 / constrained_intra=0 / bframes=10 / b_pyramid=2 / b_adapt=2 / b_bias=0 / direct=3 / weightb=1 / open_gop=0 / weightp=2 / keyint=250 / keyint_min=25 / scenecut=40 / intra_refresh=0 / rc_lookahead=60 / rc=crf / mbtree=0 / crf=17.0000 / qcomp=0.60 / qpmin=0 / qpmax=39 / qpstep=4 / vbv_maxrate=50000 / vbv_bufsize=62500 / crf_max=0.0 / nal_hrd=none / filler=0 / ip_ratio=1.40 / pb_ratio=1.30 / aq=2:1.00
Language : Russian
Default : Yes
Forced : No
Color range : Limited
Color primaries : BT.601 PAL
Transfer characteristics : BT.470 System B/G
Matrix coefficients : BT.470 System B/G

Audio
ID : 2
Format : AC-3
Format/Info : Audio Coding 3
Commercial name : Dolby Digital
Codec ID : A_AC3
Duration : 1 h 39 min
Bit rate mode : Constant
Bit rate : 192 kb/s
Channel(s) : 2 channels
Channel layout : L R
Sampling rate : 48.0 kHz
Frame rate : 31.250 FPS (1536 SPF)
Bit depth : 16 bits
Compression mode : Lossy
Stream size : 136 MiB (6%)
Language : Russian
Service kind : Complete Main
Default : Yes
Forced : No

Menu
00:00:00.000 : en:Chapter 1
00:10:09.040 : en:Chapter 2
00:18:44.320 : en:Chapter 3
00:25:43.520 : en:Chapter 4
00:30:15.360 : en:Chapter 5
00:38:19.240 : en:Chapter 6
00:45:25.880 : en:Chapter 7
00:50:23.520 : en:Chapter 8
00:59:04.880 : en:Chapter 9
01:08:04.200 : en:Chapter 10
01:16:56.000 : en:Chapter 11
01:30:59.640 : en:Chapter 12
Скриншоты
Альтернативные скриншоты

Релиз от: Cthulhu
 

Вложения

  • 11,3 KB Просмотры: 0
    Личеров 0
    Сидеров 0
    Файлов 1
    Объем 2,1 GB

Привет!

Мы группа людей которые решили помочь другим в решении их проблем, а так же пользователям с поиском самых свежих и качественных инфопродуктов. За 4 с небольшим месяца мы создали этот форум на который заходят ежедневно тысячи человек и посещаемость постоянно растёт. Мы создали панель лицензирования для защиты PHP скриптов от воровства и SEO панель для мониторинга наших сайтов и выбора верной стратегии их развития. Мы надеемся что то что мы создали пригодится Вам и возможно Вы поможете нам развиваться и совершенствоваться вместе с Вами.

Статистика форума

Темы
406.678
Сообщения
465.125
Пользователи
84.737
Новый пользователь
Mo0dak

Приложения форума для iOS и Android


У ркн там нет власти ;)
Приватные разговоры
Помощь Пользователи
    Вы не присоединились ни к одной комнате.