За последнюю неделю опубликовано 36 новых материалов.
Инструкция новичку Путеводитель по форуму Прокси для Telegram Показать подсказки , это бомба!

Скачать Не пойман – не вор / Inside Man (2006) WEB-DLRip | D | Open Matte бесплатно через торрент

  • Поучаствуй (в качестве покупателя) в любых пяти совместных покупках (кроме завершённых и "Моментальных") и получи группу "Новичок" навсегда -> ссылка на раздел
  • Получай до 480 рублей за каждого приглашенного пользователя!
    представляем Вам очередное расширение партнерской программы, подробности описаны тут -> ссылка
  • 90% материалов доступно к скачиванию после простой регистрации!
    Если же ты хочешь скачивать материалы без требования оставлять отзывы то получи группу "Новичок", 10 способов повышения описаны тут -> ссылка
  • К сожалению количество битых ссылок растет и мы уже не можем их оперативно восстанавливать поэтому просим помощи у каждого нашего пользователя.
    С сегодняшнего дня, за каждую восстановленную ссылку мы заплатим Вам.
    Подробнее тут -> ссылка
  • Перенесем твои заслуги с другого ресурса!
    Мы понимаем как сложно прокачивать аккаунты на форумах, вроде раскачал аккаунт, а тут появляется ресурс в 100 раз круче но тоже с системой прокачки и снова качать аккаунт...
    Предлагаем вам перенести Ваши заслуги на другом подобном ресурсе к нам.
    Подробности описаны тут -> ссылка
  • Вы можете получать по 2.5% с каждой покупки и продажи на маркете! Подробности в теме Партнёрская программа
Если Вы не хотите скачивать, Вы всегда можетепосмотретьонлайн, просто нажмите кнопку ниже :

Открыть плеер

Torrent_Bot

Торрент-Бот
Бот форума
4 Окт 2016
91
163
20



Информация о фильме
Название: Не пойман - не вор
Оригинальное название: Inside Man
Год выхода: 2006
Жанр: криминал
Режиссер: Спайк Ли
В ролях: Дензел Вашингтон, Клайв Оуэн, Джоди Фостер, Кристофер Пламмер, Уиллем Дефо, Чиветел Эджиофор, Карлос Андрес Гомес, Ким Директор, Джеймс Рэнсон, Берни Рейчел

О фильме:
История крутого полицейского, детектива Фрезьера, который сталкивается с хитрым грабителем банков Долтоном. Их противостояние выливается в напряженную драму с захватом заложников.По мере того, как развивается эта игра в "кошки-мышки", на горизонте появляется еще одна загадочная фигура - брокер Мадалина, роль которой в разворачивающихся событиях остается до поры до времени совершенно непонятной. Мадалина вносит еще больше хаоса и нестабильности в и без того чрезвычайно хрупкую ситуацию…



Страна: США
Продолжительность: 02:08:48
Перевод: Профессиональный (дублированный)

Файл
Формат: AVI
Качество: WEB-DLRip | Open Matte | *STARZ*
Видео: 720x400 at 23.976 fps, XviD, ~1974 kbps
Аудио: AC3, 6 ch, ~448 kbps - | Русский | -
Субтитры: Русские (на надписи - вшитые, не отключаемые)

***Релиз от:-=DoMiNo=-

Примечания & Сравнения:
Исходник видео WEB-DL Amazon STARZ (Периодически появляется логотип)
Open Matte версия фильма, имеет большее наполнение кадра, по сравнению с блюрэй.

Сравнения => Blu-ray*****vs*****WEB DL Amazon
M/I
General
Complete name : Не пойман – не вор.(2006).WEB-DLRip.O.M.[-=DoMiNo=-].avi
Format : AVI
Format/Info : Audio Video Interleave
File size : 2.19 GiB
Duration : 2 h 8 min
Overall bit rate : 2 431 kb/s
Writing application : VirtualDubModRus 1.5.10.2 (build 2542/release)
Writing library : VirtualDubMod build 2542/release

Video
ID : 0
Format : MPEG-4 Visual
Format profile : Advanced [email protected]
Format settings : BVOP2 / Custom Matrix
Format settings, BVOP : 2
Format settings, QPel : No
Format settings, GMC : No warppoints
Format settings, Matrix : Custom
Codec ID : XVID
Codec ID/Hint : XviD
Duration : 2 h 8 min
Bit rate : 1 974 kb/s
Width : 720 pixels
Height : 400 pixels
Display aspect ratio : 16:9
Frame rate : 23.976 (24000/1001) FPS
Color space : YUV
Chroma subsampling : 4:2:0
Bit depth : 8 bits
Scan type : Progressive
Compression mode : Lossy
Bits/(Pixel*Frame) : 0.286
Stream size : 1.78 GiB (81%)
Writing library : XviD 67

Audio
ID : 1
Format : AC-3
Format/Info : Audio Coding 3
Commercial name : Dolby Digital
Codec ID : 2000
Duration : 2 h 8 min
Bit rate mode : Constant
Bit rate : 448 kb/s
Channel(s) : 6 channels
Channel layout : L R C LFE Ls Rs
Sampling rate : 48.0 kHz
Frame rate : 31.250 FPS (1536 SPF)
Bit depth : 16 bits
Compression mode : Lossy
Stream size : 413 MiB (18%)
Alignment : Split across interleaves
Interleave, duration : 42 ms (1.00 video frame)
Interleave, preload duratio : 500 ms
Service kind : Complete Main
Скриншоты
Скриншоты
 

Вложения

  • 12 KB Просмотры: 1
    Личеров 0
    Сидеров 0
    Файлов 1
    Объем 2,2 GB

Привет!

Мы группа людей которые решили помочь другим в решении их проблем, а так же пользователям с поиском самых свежих и качественных инфопродуктов. За 4 с небольшим месяца мы создали этот форум на который заходят ежедневно тысячи человек и посещаемость постоянно растёт. Мы создали панель лицензирования для защиты PHP скриптов от воровства и SEO панель для мониторинга наших сайтов и выбора верной стратегии их развития. Мы надеемся что то что мы создали пригодится Вам и возможно Вы поможете нам развиваться и совершенствоваться вместе с Вами.

Статистика форума

Темы
410.488
Сообщения
469.048
Пользователи
85.750
Новый пользователь
ааиринаа

Приложения форума для iOS и Android


У ркн там нет власти ;)
Приватные разговоры
Помощь Пользователи
    Вы не присоединились ни к одной комнате.