За последнюю неделю опубликовано 63 новых материалов.
Инструкция новичку Путеводитель по форуму Прокси для Telegram Показать подсказки , это бомба!

Скачать Не говори ни слова / Don't Say a Word (2001) HDRip | КПК | D, P бесплатно через торрент

  • Поучаствуй (в качестве покупателя) в любых пяти совместных покупках (кроме завершённых и "Моментальных") и получи группу "Новичок" навсегда -> ссылка на раздел
  • Получай до 480 рублей за каждого приглашенного пользователя!
    представляем Вам очередное расширение партнерской программы, подробности описаны тут -> ссылка
  • 90% материалов доступно к скачиванию после простой регистрации!
    Если же ты хочешь скачивать материалы без требования оставлять отзывы то получи группу "Новичок", 10 способов повышения описаны тут -> ссылка
  • К сожалению количество битых ссылок растет и мы уже не можем их оперативно восстанавливать поэтому просим помощи у каждого нашего пользователя.
    С сегодняшнего дня, за каждую восстановленную ссылку мы заплатим Вам.
    Подробнее тут -> ссылка
  • Перенесем твои заслуги с другого ресурса!
    Мы понимаем как сложно прокачивать аккаунты на форумах, вроде раскачал аккаунт, а тут появляется ресурс в 100 раз круче но тоже с системой прокачки и снова качать аккаунт...
    Предлагаем вам перенести Ваши заслуги на другом подобном ресурсе к нам.
    Подробности описаны тут -> ссылка
  • Вы можете получать по 2.5% с каждой покупки и продажи на маркете! Подробности в теме Партнёрская программа
Если Вы не хотите скачивать, Вы всегда можетепосмотретьонлайн, просто нажмите кнопку ниже :

Открыть плеер

Torrent_Bot

Торрент-Бот
Бот форума
4 Окт 2016
92
160
20



Информация о фильме
Название: Не говори ни слова
Оригинальное название: Don't Say a Word
Год выхода: 2001
Жанр: Триллер, драма, детектив
Режиссер: Гэри Фледер
В ролях: Майкл Дуглас, Шон Бин, Бриттани Мёрфи, Скай МакКоул Бартусяк, Фамке Янссен, Гай Торри, Дженнифер Эспозито, Шоун Дойл, Виктор Арго, Конрад Гуд, Пол Шульц, Лэнс Реддик, Оливер Плэтт, Эйдан Дивайн, Алекс Кэмпбелл, Филип ДеУайлд, Сэм Монтесано, Арлин Дункан, Джуди Синклер, Ларри Блок, Дэвид Уоршофски, Даррен Фрост, Филип Уильямс, Луис Ванариа, Дэниэл Кэш, Люси Лорье, Изабелла Финк, Рэй Яничелли

О фильме:
"Вы хотите того же, что они?… Я никогда не скажу… никому из вас", - вот первые слова Элизабет, обращенные к знаменитому психиатру Натану Конраду. Элизабет, замкнутая в себе девушка, страдающая припадками немотивированной агрессии, причину которой никто до сих пор не смог объяснить и, тем более, устранить. В Натане просыпается профессиональный интерес и он принимается за лечение, но проходит совсем немного времени, и он узнает, что Элизабет и ее болезнь каким-то таинственным образом связаны с опасностью, грозящей ему и его семье. Дочь психиатра похищают самым бесцеремонным образом, а за ним и его женой устанавливают круглосуточное наблюдение. Чтобы спасти дочь, Натану необходимо расшифровать шестизначный код, спрятанный в затуманенном сознании его пациентки.



Рейтинг MPAA: R - лицам до 17 лет обязательно присутствие взрослого

Страна: США, Австралия, Швейцария, Канада
Студия: Regency Enterprises, Village Roadshow Pictures, NPV Entertainment
Продолжительность: 01:53:35
Перевод: Дублированный | Невафильм, Профессиональный (многоголосый, закадровый) | Карусель

Файл
Формат: MP4
Качество: HDRip (исх. BDRip 720p) *
Видео: AVC, 640x272 (2.35:1) at 23.976 fps, 500 kb/s
Аудио #1: AAC LC SBR, 48.0 KHz, 2 ch, 56 kb/s | DUB
Аудио #2: AAC LC SBR, 48.0 KHz, 2 ch, 56 kb/s | MVO
Субтитры: Нет

* за исходник спасибо ivandubskoj

MediaInfo
General
Complete name : Don't.Say.a.Word.2001.D.P.HDRip.mp4
Format : MPEG-4
Format profile : Base Media
Codec ID : isom (isom)
File size : 500 MiB
Duration : 1 h 53 min
Overall bit rate mode : Variable
Overall bit rate : 615 kb/s
Encoded date : UTC 2020-08-29 04:59:02
Tagged date : UTC 2020-08-29 04:59:02
Writing application : Yamb 2.1.0.0 [http://yamb.unite-video.com]

Video
ID : 1
Format : AVC
Format/Info : Advanced Video Codec
Format profile : [email protected]
Format settings : CABAC / 14 Ref Frames
Format settings, CABAC : Yes
Format settings, RefFrames : 14 frames
Codec ID : avc1
Codec ID/Info : Advanced Video Coding
Duration : 1 h 53 min
Bit rate : 500 kb/s
Maximum bit rate : 1 753 kb/s
Width : 640 pixels
Height : 272 pixels
Display aspect ratio : 2.35:1
Frame rate mode : Constant
Frame rate : 23.976 (24000/1001) FPS
Color space : YUV
Chroma subsampling : 4:2:0
Bit depth : 8 bits
Scan type : Progressive
Bits/(Pixel*Frame) : 0.120
Stream size : 406 MiB (81%)
Title : Don`t Say a Word
Writing library : x264 core 152 r2851 ba24899
Encoding settings : cabac=1 / ref=14 / deblock=1:-2:-1 / analyse=0x3:0x113 / me=umh / subme=10 / psy=1 / psy_rd=1.00:0.00 / mixed_ref=1 / me_range=32 / chroma_me=1 / trellis=2 / 8x8dct=1 / cqm=0 / deadzone=21,11 / fast_pskip=0 / chroma_qp_offset=-2 / threads=6 / lookahead_threads=1 / sliced_threads=0 / nr=0 / decimate=0 / interlaced=0 / bluray_compat=0 / constrained_intra=0 / bframes=15 / b_pyramid=2 / b_adapt=2 / b_bias=0 / direct=3 / weightb=1 / open_gop=0 / weightp=2 / keyint=250 / keyint_min=23 / scenecut=40 / intra_refresh=0 / rc=2pass / mbtree=0 / bitrate=500 / ratetol=1.0 / qcomp=0.65 / qpmin=0 / qpmax=69 / qpstep=4 / cplxblur=20.0 / qblur=0.5 / ip_ratio=1.15 / pb_ratio=1.25 / aq=1:0.75
Language : English
Encoded date : UTC 2020-08-30 01:20:13
Tagged date : UTC 2020-08-29 05:00:31
Codec configuration box : avcC

Audio #1
ID : 2
Format : AAC LC SBR
Format/Info : Advanced Audio Codec Low Complexity with Spectral Band Replication
Commercial name : HE-AAC
Format settings : Explicit
Codec ID : mp4a-40-2
Duration : 1 h 53 min
Bit rate mode : Variable
Bit rate : 56.0 kb/s
Maximum bit rate : 145 kb/s
Channel(s) : 2 channels
Channel layout : L R
Sampling rate : 48.0 kHz
Frame rate : 23.438 FPS (2048 SPF)
Compression mode : Lossy
Stream size : 45.5 MiB (9%)
Title : DUB - Nevafilm
Language : Russian
Encoded date : UTC 2020-08-29 05:00:02
Tagged date : UTC 2020-08-29 05:00:31

Audio #2
ID : 3
Format : AAC LC SBR
Format/Info : Advanced Audio Codec Low Complexity with Spectral Band Replication
Commercial name : HE-AAC
Format settings : Explicit
Codec ID : mp4a-40-2
Duration : 1 h 53 min
Bit rate mode : Variable
Bit rate : 56.0 kb/s
Maximum bit rate : 154 kb/s
Channel(s) : 2 channels
Channel layout : L R
Sampling rate : 48.0 kHz
Frame rate : 23.438 FPS (2048 SPF)
Compression mode : Lossy
Stream size : 45.5 MiB (9%)
Title : MVO - Karusel
Language : Russian
Encoded date : UTC 2020-08-29 05:00:18
Tagged date : UTC 2020-08-29 05:00:31
Скриншоты
 

Вложения

  • 20,5 KB Просмотры: 0
    Личеров 0
    Сидеров 0
    Файлов 1
    Объем 500,1 MB

Привет!

Мы группа людей которые решили помочь другим в решении их проблем, а так же пользователям с поиском самых свежих и качественных инфопродуктов. За 4 с небольшим месяца мы создали этот форум на который заходят ежедневно тысячи человек и посещаемость постоянно растёт. Мы создали панель лицензирования для защиты PHP скриптов от воровства и SEO панель для мониторинга наших сайтов и выбора верной стратегии их развития. Мы надеемся что то что мы создали пригодится Вам и возможно Вы поможете нам развиваться и совершенствоваться вместе с Вами.

Статистика форума

Темы
406.656
Сообщения
465.107
Пользователи
84.677
Новый пользователь
maxim_nik33

Приложения форума для iOS и Android


У ркн там нет власти ;)
Приватные разговоры
Помощь Пользователи
    Вы не присоединились ни к одной комнате.