За последнюю неделю опубликовано 63 новых материалов.
Инструкция новичку Путеводитель по форуму Прокси для Telegram Показать подсказки , это бомба!

Скачать Не говори ни слова / Don't Say a Word (2001) BDRip-HEVC 1080p | D, P, A бесплатно через торрент

  • Поучаствуй (в качестве покупателя) в любых пяти совместных покупках (кроме завершённых и "Моментальных") и получи группу "Новичок" навсегда -> ссылка на раздел
  • Получай до 480 рублей за каждого приглашенного пользователя!
    представляем Вам очередное расширение партнерской программы, подробности описаны тут -> ссылка
  • 90% материалов доступно к скачиванию после простой регистрации!
    Если же ты хочешь скачивать материалы без требования оставлять отзывы то получи группу "Новичок", 10 способов повышения описаны тут -> ссылка
  • К сожалению количество битых ссылок растет и мы уже не можем их оперативно восстанавливать поэтому просим помощи у каждого нашего пользователя.
    С сегодняшнего дня, за каждую восстановленную ссылку мы заплатим Вам.
    Подробнее тут -> ссылка
  • Перенесем твои заслуги с другого ресурса!
    Мы понимаем как сложно прокачивать аккаунты на форумах, вроде раскачал аккаунт, а тут появляется ресурс в 100 раз круче но тоже с системой прокачки и снова качать аккаунт...
    Предлагаем вам перенести Ваши заслуги на другом подобном ресурсе к нам.
    Подробности описаны тут -> ссылка
  • Вы можете получать по 2.5% с каждой покупки и продажи на маркете! Подробности в теме Партнёрская программа
Если Вы не хотите скачивать, Вы всегда можетепосмотретьонлайн, просто нажмите кнопку ниже :

Открыть плеер

Torrent_Bot

Торрент-Бот
Бот форума
4 Окт 2016
92
160
20



Название: Не говори ни слова
Оригинальное название: Don't Say a Word
Год выхода: 2001
Жанр: триллер, драма, детектив
Режиссер: Гэри Фледер
В ролях: Майкл Дуглас, Бриттани Мерфи, Шон Бин, Дженнифер Эспозито, Фамке Янссен, Скай МакКоул Бартусяк, Гай Торри, Шон Дойл, Виктор Арго, Конрад Гуд

О фильме: «Вы хотите того же, что они?... Я никогда не скажу... никому из вас» - вот первые слова Элизабет, обращенные к знаменитому психиатру Натану Конраду. Элизабет, замкнутая в себе девушка, страдающая припадками немотивированной агрессии, причину которой никто до сих пор не смог объяснить и, тем более, устранить. В Натане просыпается профессиональный интерес и он принимается за лечение, но проходит совсем немного времени, и он узнает, что Элизабет и ее болезнь каким-то таинственным образом связаны с опасностью, грозящей ему и его семье. Дочь психиатра похищают самым бесцеремонным образом, а за ним и его женой устанавливают круглосуточное наблюдение. Чтобы спасти дочь, Натану необходимо расшифровать шестизначный код, спрятанный в затуманенном сознании его пациентки.



Страна: США, Австралия, Швейцария, Канада
Студия: 20th Century Fox, Regency Enterprises, Village Roadshow Pictures, NPV Entertainment, Kopelson Entertainment, New Regency, Further Films
Продолжительность: 01:53:35
Перевод: дублированный, профессиональный многоголосый, авторский одноголосый

Качество: BDRip-HEVC 1080p
Кодек: HEVC (x265)
Видео: 1920x816 (2.35:1), 8359 Кбит/сек, HEVC ([email protected]@High) 10 бит
Звук:
Аудио1: AC3, 6 ch, 640 Kbps - русский Дублированный (Невафильм)
Аудио2: AC3, 6 ch, 640 Kbps - русский Многоголосый (Карусель)
Аудио3: AC3, 2 ch, 192 Kbps - русский Многоголосый
Аудио5: AC3, 6 ch, 640 Kbps - русский Авторский (Андрей Гаврилов)
Аудио5: AC3, 6 ch, 640 Kbps - русский Авторский (Юрий Живов)
Аудио6: AC3, 2 ch, 192 Kbps - русский Авторский (Андрей Дольский)
Аудио7: AC3, 6 ch, 640 Kbps - english Original
Субтитры: Русские полные (SRT), English full (SRT, SDH)
Навигация по главам: Есть

Лог (x265 info)
x265 [info]: frame I: 705, Avg QP:18.12 kb/s: 15536.74
x265 [info]: frame P: 25618, Avg QP:19.50 kb/s: 13029.89
x265 [info]: frame B: 137093, Avg QP:21.30 kb/s: 7447.77
x265 [info]: Weighted P-Frames: Y:8.7% UV:7.3%
x265 [info]: Weighted B-Frames: Y:11.0% UV:7.6%
x265 [info]: consecutive B-frames: 4.5% 4.1% 7.1% 20.9% 11.3% 19.8% 6.5% 6.9% 3.9% 3.0% 2.3% 3.1% 1.4% 1.1% 1.3% 1.2% 1.6%
x265 [info]: encoded 163416 frames in 142549.45s (1.15 fps), 8357.75 kb/s, Avg QP:21.00
Mediainfo
Формат : Matroska
Версия формата : Version 4
Размер файла : 9,48 Гбайт
Продолжительность : 1 ч. 53 м.
Общий поток : 11,9 Мбит/сек
Название фильма : Не.говори.ни.слова.Don't.Say.A.Word.2001.BDRip-HEVC.1080p
Дата кодирования : UTC 2020-07-18 11:49:04
Программа кодирования : mkvmerge v48.0.0 ('Fortress Around Your Heart') 64-bit
Библиотека кодирования : libebml v1.4.0 + libmatroska v1.6.0

Видео
Идентификатор : 1
Формат : HEVC
Формат/Информация : High Efficiency Video Coding
Профиль формата : Main [email protected]@Main
Идентификатор кодека : V_MPEGH/ISO/HEVC
Продолжительность : 1 ч. 53 м.
Битрейт : 8 359 Кбит/сек
Ширина : 1 920 пикселей
Высота : 816 пикселей
Соотношение сторон : 2,35:1
Режим частоты кадров : Постоянный
Частота кадров : 23,976 (24000/1001) кадра/сек
Цветовое пространство : YUV
Субдискретизация насыщенности : 4:2:0
Битовая глубина : 10 бит
Бит/(Пиксели*Кадры) : 0.223
Размер потока : 6,63 Гбайт (70%)
Заголовок : Don't Say a Word / Rip by OldGamer
Библиотека кодирования : x265 3.3+4-g85d84b2af:[Windows][MSVC 1925][64 bit] 10bit
Настройки программы : cpuid=1111039 / frame-threads=3 / numa-pools=8 / wpp / no-pmode / no-pme / no-psnr / no-ssim / log-level=2 / input-csp=1 / input-res=1920x816 / interlace=0 / total-frames=163416 / level-idc=0 / high-tier=1 / uhd-bd=0 / ref=5 / no-allow-non-conformance / no-repeat-headers / annexb / no-aud / no-hrd / info / hash=0 / no-temporal-layers / open-gop / min-keyint=23 / keyint=240 / gop-lookahead=0 / bframes=16 / b-adapt=2 / b-pyramid / bframe-bias=0 / rc-lookahead=60 / lookahead-slices=0 / scenecut=40 / hist-scenecut=0 / radl=0 / no-splice / no-intra-refresh / ctu=64 / min-cu-size=8 / rect / amp / max-tu-size=32 / tu-inter-depth=4 / tu-intra-depth=4 / limit-tu=1 / rdoq-level=2 / dynamic-rd=0.00 / no-ssim-rd / signhide / no-tskip / nr-intra=0 / nr-inter=0 / no-constrained-intra / no-strong-intra-smoothing / max-merge=5 / limit-refs=3 / no-limit-modes / me=3 / subme=7 / merange=57 / temporal-mvp / no-frame-dup / no-hme / weightp / weightb / no-analyze-src-pics / deblock=-3:-3 / no-sao / no-sao-non-deblock / rd=6 / selective-sao=0 / no-early-skip / rskip / no-fast-intra / no-tskip-fast / no-cu-lossless / b-intra / no-splitrd-skip / rdpenalty=0 / psy-rd=2.00 / psy-rdoq=1.00 / no-rd-refine / no-lossless / cbqpoffs=0 / crqpoffs=0 / rc=crf / crf=20.0 / qcomp=0.80 / qpstep=4 / stats-write=0 / stats-read=0 / ipratio=1.40 / pbratio=1.30 / aq-mode=4 / aq-strength=0.80 / no-cutree / zone-count=1 / zones: / start-frame=157612 / end-frame=163399 / qp=36 / no-strict-cbr / qg-size=32 / no-rc-grain / qpmax=69 / qpmin=0 / no-const-vbv / sar=1 / overscan=0 / videoformat=5 / range=0 / colorprim=2 / transfer=2 / colormatrix=2 / chromaloc=0 / display-window=0 / cll=0,0 / min-luma=0 / max-luma=1023 / log2-max-poc-lsb=8 / vui-timing-info / vui-hrd-info / slices=1 / no-opt-qp-pps / no-opt-ref-list-length-pps / no-multi-pass-opt-rps / scenecut-bias=0.00 / hist-threshold=0.01 / no-opt-cu-delta-qp / no-aq-motion / no-hdr10 / no-hdr10-opt / no-dhdr10-opt / no-idr-recovery-sei / analysis-reuse-level=0 / analysis-save-reuse-level=0 / analysis-load-reuse-level=0 / scale-factor=0 / refine-intra=0 / refine-inter=0 / refine-mv=1 / refine-ctu-distortion=0 / no-limit-sao / ctu-info=0 / no-lowpass-dct / refine-analysis-type=0 / copy-pic=1 / max-ausize-factor=1.0 / no-dynamic-refine / no-single-sei / no-hevc-aq / no-svt / no-field / qp-adaptation-range=1.00 / no-scenecut-aware-qpconformance-window-offsets / right=0 / bottom=0
Язык : English
Default : Да
Forced : Нет

Аудио #1
Идентификатор : 2
Формат : AC-3
Формат/Информация : Audio Coding 3
Коммерческое название : Dolby Digital
Идентификатор кодека : A_AC3
Продолжительность : 1 ч. 53 м.
Вид битрейта : Постоянный
Битрейт : 640 Кбит/сек
Каналы : 6 каналов
Channel layout : L R C LFE Ls Rs
Частота : 48,0 КГц
Частота кадров : 31,250 кадров/сек (1536 SPF)
Метод сжатия : С потерями
Размер потока : 520 Мбайт (5%)
Заголовок : DUB (Невафильм)
Язык : Russian
Service kind : Complete Main
Default : Да
Forced : Нет

Аудио #2
Идентификатор : 3
Формат : AC-3
Формат/Информация : Audio Coding 3
Коммерческое название : Dolby Digital
Идентификатор кодека : A_AC3
Продолжительность : 1 ч. 53 м.
Вид битрейта : Постоянный
Битрейт : 640 Кбит/сек
Каналы : 6 каналов
Channel layout : L R C LFE Ls Rs
Частота : 48,0 КГц
Частота кадров : 31,250 кадров/сек (1536 SPF)
Метод сжатия : С потерями
Размер потока : 520 Мбайт (5%)
Заголовок : MVO (Карусель)
Язык : Russian
Service kind : Complete Main
Default : Нет
Forced : Нет

Аудио #3
Идентификатор : 4
Формат : AC-3
Формат/Информация : Audio Coding 3
Коммерческое название : Dolby Digital
Идентификатор кодека : A_AC3
Продолжительность : 1 ч. 53 м.
Вид битрейта : Постоянный
Битрейт : 192 Кбит/сек
Каналы : 2 канала
Channel layout : L R
Частота : 48,0 КГц
Частота кадров : 31,250 кадров/сек (1536 SPF)
Метод сжатия : С потерями
Размер потока : 156 Мбайт (2%)
Заголовок : MVO
Язык : Russian
Service kind : Complete Main
Default : Нет
Forced : Нет

Аудио #4
Идентификатор : 5
Формат : AC-3
Формат/Информация : Audio Coding 3
Коммерческое название : Dolby Digital
Идентификатор кодека : A_AC3
Продолжительность : 1 ч. 53 м.
Вид битрейта : Постоянный
Битрейт : 640 Кбит/сек
Каналы : 6 каналов
Channel layout : L R C LFE Ls Rs
Частота : 48,0 КГц
Частота кадров : 31,250 кадров/сек (1536 SPF)
Метод сжатия : С потерями
Размер потока : 520 Мбайт (5%)
Заголовок : AVO (Андрей Гаврилов)
Язык : Russian
Service kind : Complete Main
Default : Нет
Forced : Нет

Аудио #5
Идентификатор : 6
Формат : AC-3
Формат/Информация : Audio Coding 3
Коммерческое название : Dolby Digital
Идентификатор кодека : A_AC3
Продолжительность : 1 ч. 53 м.
Вид битрейта : Постоянный
Битрейт : 640 Кбит/сек
Каналы : 6 каналов
Channel layout : L R C LFE Ls Rs
Частота : 48,0 КГц
Частота кадров : 31,250 кадров/сек (1536 SPF)
Метод сжатия : С потерями
Размер потока : 520 Мбайт (5%)
Заголовок : AVO (Юрий Живов)
Язык : Russian
Service kind : Complete Main
Default : Нет
Forced : Нет

Аудио #6
Идентификатор : 7
Формат : AC-3
Формат/Информация : Audio Coding 3
Коммерческое название : Dolby Digital
Идентификатор кодека : A_AC3
Продолжительность : 1 ч. 53 м.
Вид битрейта : Постоянный
Битрейт : 192 Кбит/сек
Каналы : 2 канала
Channel layout : L R
Частота : 48,0 КГц
Частота кадров : 31,250 кадров/сек (1536 SPF)
Метод сжатия : С потерями
Размер потока : 156 Мбайт (2%)
Заголовок : AVO (Андрей Дольский)
Язык : Russian
Service kind : Complete Main
Default : Нет
Forced : Нет

Аудио #7
Идентификатор : 8
Формат : AC-3
Формат/Информация : Audio Coding 3
Коммерческое название : Dolby Digital
Идентификатор кодека : A_AC3
Продолжительность : 1 ч. 53 м.
Вид битрейта : Постоянный
Битрейт : 640 Кбит/сек
Каналы : 6 каналов
Channel layout : L R C LFE Ls Rs
Частота : 48,0 КГц
Частота кадров : 31,250 кадров/сек (1536 SPF)
Метод сжатия : С потерями
Размер потока : 520 Мбайт (5%)
Заголовок : Original
Язык : English
Service kind : Complete Main
Default : Нет
Forced : Нет

Текст #1
Идентификатор : 9
Формат : UTF-8
Идентификатор кодека : S_TEXT/UTF8
Идентификатор кодека/Информация : UTF-8 Plain Text
Продолжительность : 1 ч. 47 м.
Битрейт : 71 бит/сек
Count of elements : 1087
Размер потока : 56,6 Кбайт (0%)
Заголовок : Full
Язык : Russian
Default : Нет
Forced : Нет

Текст #2
Идентификатор : 10
Формат : UTF-8
Идентификатор кодека : S_TEXT/UTF8
Идентификатор кодека/Информация : UTF-8 Plain Text
Продолжительность : 1 ч. 46 м.
Битрейт : 48 бит/сек
Count of elements : 1049
Размер потока : 37,7 Кбайт (0%)
Заголовок : Full
Язык : English
Default : Нет
Forced : Нет

Текст #3
Идентификатор : 11
Формат : UTF-8
Идентификатор кодека : S_TEXT/UTF8
Идентификатор кодека/Информация : UTF-8 Plain Text
Продолжительность : 1 ч. 47 м.
Битрейт : 51 бит/сек
Count of elements : 1405
Размер потока : 40,2 Кбайт (0%)
Заголовок : Full [SDH]
Язык : English
Default : Нет
Forced : Нет

Меню
00:00:00.000 : en:The Robbery (Main Titles)
00:08:10.490 : en:The Psychiatrist
00:11:16.676 : en:Elisabeth
00:18:50.546 : en:Uninvited Guests
00:20:02.952 : en:The Conrads
00:23:31.702 : en:The Floater
00:26:54.780 : en:Where's Jessie?
00:29:50.664 : en:We Have Your Daughter
00:35:31.338 : en:By Two Hands
00:37:07.559 : en:Emergency
00:42:11.696 : en:No Percentage
00:44:05.643 : en:Counterfeit Schizophrenic
00:47:15.416 : en:A Talk With Elisabeth
00:53:40.217 : en:The Visitor
00:56:37.978 : en:The Croft Connection
00:59:07.502 : en:Go Back...
01:03:58.126 : en:Beneath the Surface
01:07:30.088 : en:part of the Deal
01:10:24.387 : en:Daddy's Smart Little Girl
01:12:00.066 : en:Security Breach
01:18:19.778 : en:Aggie's Battle
01:19:18.921 : en:The Way It Happened
01:24:32.776 : en:New Rules
01:27:01.633 : en:To Hart Island
01:30:05.567 : en:Face-to-Face
01:34:03.388 : en:The Number
01:37:04.485 : en:Grave Error
01:39:14.365 : en:Cognitive Distortion
01:40:37.365 : en:A Father's Fight
01:43:49.765 : en:Conrad's Justice
01:47:04.960 : en:Going Home
01:49:33.984 : en:End Titles
Скриншоты


Релиз от: OldGamer
 

Вложения

  • 48,4 KB Просмотры: 0
    Личеров 0
    Сидеров 0
    Файлов 1
    Объем 9,5 GB

Привет!

Мы группа людей которые решили помочь другим в решении их проблем, а так же пользователям с поиском самых свежих и качественных инфопродуктов. За 4 с небольшим месяца мы создали этот форум на который заходят ежедневно тысячи человек и посещаемость постоянно растёт. Мы создали панель лицензирования для защиты PHP скриптов от воровства и SEO панель для мониторинга наших сайтов и выбора верной стратегии их развития. Мы надеемся что то что мы создали пригодится Вам и возможно Вы поможете нам развиваться и совершенствоваться вместе с Вами.

Статистика форума

Темы
406.656
Сообщения
465.107
Пользователи
84.678
Новый пользователь
наталиЯЯ

Приложения форума для iOS и Android


У ркн там нет власти ;)
Приватные разговоры
Помощь Пользователи
    Вы не присоединились ни к одной комнате.