За последнюю неделю опубликовано 86 новых материалов.
Инструкция новичку Путеводитель по форуму Прокси для Telegram Показать подсказки , это бомба!

Скачать Не бери в голову / Nevermind (2018) WEB-DL 1080p | iTunes бесплатно через торрент

  • Поучаствуй (в качестве покупателя) в любых пяти совместных покупках (кроме завершённых и "Моментальных") и получи группу "Новичок" навсегда -> ссылка на раздел
  • Получай до 480 рублей за каждого приглашенного пользователя!
    представляем Вам очередное расширение партнерской программы, подробности описаны тут -> ссылка
  • 90% материалов доступно к скачиванию после простой регистрации!
    Если же ты хочешь скачивать материалы без требования оставлять отзывы то получи группу "Новичок", 10 способов повышения описаны тут -> ссылка
  • К сожалению количество битых ссылок растет и мы уже не можем их оперативно восстанавливать поэтому просим помощи у каждого нашего пользователя.
    С сегодняшнего дня, за каждую восстановленную ссылку мы заплатим Вам.
    Подробнее тут -> ссылка
  • Перенесем твои заслуги с другого ресурса!
    Мы понимаем как сложно прокачивать аккаунты на форумах, вроде раскачал аккаунт, а тут появляется ресурс в 100 раз круче но тоже с системой прокачки и снова качать аккаунт...
    Предлагаем вам перенести Ваши заслуги на другом подобном ресурсе к нам.
    Подробности описаны тут -> ссылка
  • Вы можете получать по 2.5% с каждой покупки и продажи на маркете! Подробности в теме Партнёрская программа
Если Вы не хотите скачивать, Вы всегда можетепосмотретьонлайн, просто нажмите кнопку ниже :

Открыть плеер

Torrent_Bot

Торрент-Бот
Бот форума
4 Окт 2016
102
153
20



Информация о фильме
Название: Не бери в голову
Оригинальное название: Nevermind
Год выхода: 2018
Жанр: Драма, комедия
Режиссер: Эрос Пульелли
В ролях: Паоло Сассанелли, Андреа Сарторетти, Джулия Микелини, Массимо Поджо, Альберто Молинари, Гуальтьеро Бурци, Ренато Скарпа, Пиа Энглберс, Аврора Эрги, Джанлука Гобби, Клаудия Коли, Джанна Джакетти, Антонио Мерон

О фильме: Жизнь пяти людей переворачивается с ног на голову, когда все они оказываются в парадоксальных ситуациях. Свидетель одного эпизода становится главным героем следующего. Пять историй, связанных красной нитью безумия, приводят героев к необходимости делать неожиданный выбор.



Страна: Италия
Студия: Minerva Pictures, Monkey King Pictures, Déjà vu production
Продолжительность: 01:55:12
Перевод: Профессиональный (многоголосый, закадровый) | iTunes

Файл
Качество: WEB-DL 1080p
Контейнер: MKV
Видео: MPEG-4 AVC, 1920x804 (2.40:1), 4597 kbps, 25.000 fps
Аудио 1: Russian: АС3, 6 ch, 48 kHz, 384 kbps - MVO, iTunes
Аудио 2: Italian: АС3, 6 ch, 48 kHz, 384 kbps - Original
Субтитры: Русские (Full)

Релиз от:

Скриншоты

MediaInfo
General
Unique ID : 333195687766141359533093148384037472852 (0xFAAB27BDDEF828BD5F314FAC88888A54)
Complete name : NEVERMIND_2018_WEB-DL_1080p-BLUEBIRD.mkv
Format : Matroska
Format version : Version 4 / Version 2
File size : 4.32 GiB
Duration : 1 h 55 min
Overall bit rate : 5 367 kb/s
Encoded date : UTC 2020-05-17 18:17:24
Writing application : mkvmerge v43.0.0 ('The Quartermaster') 64-bit
Writing library : libebml v1.3.10 + libmatroska v1.5.2
Cover : Yes
Attachments : cover.jpg

Video
ID : 1
Format : AVC
Format/Info : Advanced Video Codec
Format profile : High@L4
Format settings, CABAC : Yes
Format settings, RefFrames : 5 frames
Codec ID : V_MPEG4/ISO/AVC
Duration : 1 h 55 min
Bit rate : 4 597 kb/s
Width : 1 920 pixels
Height : 804 pixels
Display aspect ratio : 2.40:1
Frame rate mode : Constant
Frame rate : 25.000 FPS
Color space : YUV
Chroma subsampling : 4:2:0
Bit depth : 8 bits
Scan type : Progressive
Bits/(Pixel*Frame) : 0.119
Stream size : 3.70 GiB (86%)
Language : English
Default : Yes
Forced : No
Color range : Limited
Color primaries : BT.709
Transfer characteristics : BT.709
Matrix coefficients : BT.709

Audio #1
ID : 2
Format : AC-3
Format/Info : Audio Coding 3
Format settings, Endianness : Big
Codec ID : A_AC3
Duration : 1 h 55 min
Bit rate mode : Constant
Bit rate : 384 kb/s
Channel(s) : 6 channels
Channel positions : Front: L C R, Side: L R, LFE
Sampling rate : 48.0 kHz
Frame rate : 31.250 FPS (1536 SPF)
Bit depth : 16 bits
Compression mode : Lossy
Stream size : 316 MiB (7%)
Title : [MVO] DD 5.1 @ 384 kbps (iTunes)
Language : Russian
Service kind : Complete Main
Default : Yes
Forced : No

Audio #2
ID : 3
Format : AC-3
Format/Info : Audio Coding 3
Format settings, Endianness : Big
Codec ID : A_AC3
Duration : 1 h 55 min
Bit rate mode : Constant
Bit rate : 384 kb/s
Channel(s) : 6 channels
Channel positions : Front: L C R, Side: L R, LFE
Sampling rate : 48.0 kHz
Frame rate : 31.250 FPS (1536 SPF)
Bit depth : 16 bits
Compression mode : Lossy
Stream size : 316 MiB (7%)
Title : [ORIGINAL] DD 5.1 @ 384 kbps (iTunes)
Language : Italian
Service kind : Complete Main
Default : No
Forced : No

Text
ID : 4
Format : UTF-8
Codec ID : S_TEXT/UTF8
Codec ID/Info : UTF-8 Plain Text
Duration : 1 h 47 min
Bit rate : 88 b/s
Count of elements : 1204
Stream size : 69.6 KiB (0%)
Title : Full-length
Language : Russian
Default : No
Forced : No

Menu
00:00:00.000 : en:Глава 1
00:08:39.640 : en:Глава 2
00:16:51.760 : en:Глава 3
00:21:53.520 : en:Глава 4
00:26:51.840 : en:Глава 5
00:34:01.000 : en:Глава 6
00:40:15.280 : en:Глава 7
00:48:13.520 : en:Глава 8
00:55:14.120 : en:Глава 9
01:02:18.480 : en:Глава 10
01:08:36.120 : en:Глава 11
01:15:26.640 : en:Глава 12
01:21:35.960 : en:Глава 13
01:26:59.720 : en:Глава 14
01:33:16.920 : en:Глава 15
01:38:48.840 : en:Глава 16
01:45:26.960 : en:Глава 17
 

Вложения

  • 22,5 KB Просмотры: 0
    Личеров 0
    Сидеров 0
    Файлов 1
    Объем 4,3 GB

Привет!

Мы группа людей которые решили помочь другим в решении их проблем, а так же пользователям с поиском самых свежих и качественных инфопродуктов. За 4 с небольшим месяца мы создали этот форум на который заходят ежедневно тысячи человек и посещаемость постоянно растёт. Мы создали панель лицензирования для защиты PHP скриптов от воровства и SEO панель для мониторинга наших сайтов и выбора верной стратегии их развития. Мы надеемся что то что мы создали пригодится Вам и возможно Вы поможете нам развиваться и совершенствоваться вместе с Вами.

Статистика форума

Темы
405.448
Сообщения
462.411
Пользователи
80.451
Новый пользователь
Dmitrii608

Приложения форума для iOS и Android


У ркн там нет власти ;)
Приватные разговоры
Помощь Пользователи
    Вы не присоединились ни к одной комнате.