За последнюю неделю опубликовано 63 новых материалов.
Инструкция новичку Путеводитель по форуму Прокси для Telegram Показать подсказки , это бомба!

Скачать Назад в будущее 2 / Back to the Future 2 (1989) DVDRip-AVC | D, P, P2 | Fullscreen бесплатно через торрент

  • Поучаствуй (в качестве покупателя) в любых пяти совместных покупках (кроме завершённых и "Моментальных") и получи группу "Новичок" навсегда -> ссылка на раздел
  • Получай до 480 рублей за каждого приглашенного пользователя!
    представляем Вам очередное расширение партнерской программы, подробности описаны тут -> ссылка
  • 90% материалов доступно к скачиванию после простой регистрации!
    Если же ты хочешь скачивать материалы без требования оставлять отзывы то получи группу "Новичок", 10 способов повышения описаны тут -> ссылка
  • К сожалению количество битых ссылок растет и мы уже не можем их оперативно восстанавливать поэтому просим помощи у каждого нашего пользователя.
    С сегодняшнего дня, за каждую восстановленную ссылку мы заплатим Вам.
    Подробнее тут -> ссылка
  • Перенесем твои заслуги с другого ресурса!
    Мы понимаем как сложно прокачивать аккаунты на форумах, вроде раскачал аккаунт, а тут появляется ресурс в 100 раз круче но тоже с системой прокачки и снова качать аккаунт...
    Предлагаем вам перенести Ваши заслуги на другом подобном ресурсе к нам.
    Подробности описаны тут -> ссылка
  • Вы можете получать по 2.5% с каждой покупки и продажи на маркете! Подробности в теме Партнёрская программа
Если Вы не хотите скачивать, Вы всегда можетепосмотретьонлайн, просто нажмите кнопку ниже :

Открыть плеер

Torrent_Bot

Торрент-Бот
Бот форума
4 Окт 2016
92
160
20



Название: Назад в будущее 2
Оригинальное название: Back to the Future 2
Год выхода: 1989
Жанр: фантастика, комедия, приключения
Режиссер: Роберт Земекис
В ролях: Майкл Дж. Фокс, Кристофер Ллойд, Лиа Томпсон, Томас Ф. Уилсон, Элизабет Шу, Джеймс Толкан, Джеффри Вайсман, Кэйси Семашко, Билли Зейн, Дж.Дж. Коэн, Чарльз Флайшер, Э. Казанова Эванс

О фильме:
Продолжение фантастической истории о приключениях американского подростка во времени. На этот раз с помощью модернизированной Доком машины времени Марти из 80-х попадает в будущее.
Дети Марти в беде, и их надо выручать. Приходится повозиться со злодеем…



Страна: США
Продолжительность: 01:48:07
Перевод: Профессиональный (полное дублирование), профессиональный (многоголосый закадровый), профессиональный (двухголосый закадровый)

Формат: MKV
Качество: DVDRip-AVC
Видео: AVC/H.264, 720x480(4:3)@720x540, 23.976 fps, ~2129 Kbps
Аудио 1: AC3, 6 ch, 384 kbps - Русский (MVO ОРТ)
Аудио 2: AC3, 6 ch, 384 kbps - Английский
Аудио 3: AC3, 6 ch, 384 kbps - Русский (DUB) отдельно
Аудио 4: AC3, 6 ch, 384 kbps - Русский (DVO Премьер-видео) отдельно
Субтитры: русские, английские

MediaInfo
General
Unique ID : 9982369916452108740202692102906316814 (0x78288D5E58DC5605288F63F3512080E)
Complete name : D:Назад в будущее 2 (1989) DVDRip-AVC FullscreenНазад в будущее 2 (1989) DVDRip-AVC FS.mkv
Format : Matroska
Format version : Version 4
File size : 2.19 GiB
Duration : 1 h 48 min
Overall bit rate : 2 897 kb/s
Encoded date : UTC 2018-07-18 08:24:22
Writing application : mkvmerge v25.0.0 ('Prog Noir') 64-bit
Writing library : libebml v1.3.6 + libmatroska v1.4.9

Video
ID : 1
Format : AVC
Format/Info : Advanced Video Codec
Format profile : [email protected]
Format settings : CABAC / 8 Ref Frames
Format settings, CABAC : Yes
Format settings, Reference : 8 frames
Codec ID : V_MPEG4/ISO/AVC
Duration : 1 h 48 min
Bit rate : 2 129 kb/s
Width : 720 pixels
Height : 480 pixels
Display aspect ratio : 4:3
Frame rate mode : Constant
Frame rate : 23.976 (24000/1001) FPS
Color space : YUV
Chroma subsampling : 4:2:0
Bit depth : 8 bits
Scan type : Progressive
Bits/(Pixel*Frame) : 0.257
Stream size : 1.61 GiB (73%)
Writing library : x264 core 155 r2901 7d0ff22
Encoding settings : cabac=1 / ref=8 / deblock=1:-1:-1 / analyse=0x3:0x133 / me=umh / subme=9 / psy=1 / psy_rd=1.00:0.18 / mixed_ref=1 / me_range=32 / chroma_me=1 / trellis=2 / 8x8dct=1 / cqm=0 / deadzone=21,11 / fast_pskip=0 / chroma_qp_offset=-3 / threads=3 / lookahead_threads=1 / sliced_threads=0 / nr=0 / decimate=0 / interlaced=0 / bluray_compat=0 / constrained_intra=0 / bframes=10 / b_pyramid=2 / b_adapt=2 / b_bias=0 / direct=3 / weightb=1 / open_gop=0 / weightp=2 / keyint=240 / keyint_min=23 / scenecut=40 / intra_refresh=0 / rc=2pass / mbtree=0 / bitrate=2129 / ratetol=1.0 / qcomp=0.60 / qpmin=0 / qpmax=69 / qpstep=4 / cplxblur=20.0 / qblur=0.5 / ip_ratio=1.40 / pb_ratio=1.30 / aq=1:0.90
Default : Yes
Forced : No

Audio #1
ID : 2
Format : AC-3
Format/Info : Audio Coding 3
Commercial name : Dolby Digital
Codec ID : A_AC3
Duration : 1 h 48 min
Bit rate mode : Constant
Bit rate : 384 kb/s
Channel(s) : 6 channels
Channel layout : L R C LFE Ls Rs
Sampling rate : 48.0 kHz
Frame rate : 31.250 FPS (1536 SPF)
Bit depth : 16 bits
Compression mode : Lossy
Stream size : 297 MiB (13%)
Title : MVO ОРТ
Language : Russian
Service kind : Complete Main
Default : Yes
Forced : No

Audio #2
ID : 3
Format : AC-3
Format/Info : Audio Coding 3
Commercial name : Dolby Digital
Codec ID : A_AC3
Duration : 1 h 48 min
Bit rate mode : Constant
Bit rate : 384 kb/s
Channel(s) : 6 channels
Channel layout : L R C LFE Ls Rs
Sampling rate : 48.0 kHz
Frame rate : 31.250 FPS (1536 SPF)
Bit depth : 16 bits
Compression mode : Lossy
Stream size : 297 MiB (13%)
Title : Original
Language : English
Service kind : Complete Main
Default : No
Forced : No

Text #1
ID : 4
Format : UTF-8
Codec ID : S_TEXT/UTF8
Codec ID/Info : UTF-8 Plain Text
Duration : 1 h 42 min
Bit rate : 95 b/s
Count of elements : 1190
Stream size : 71.9 KiB (0%)
Language : Russian
Default : No
Forced : No

Text #2
ID : 5
Format : UTF-8
Codec ID : S_TEXT/UTF8
Codec ID/Info : UTF-8 Plain Text
Duration : 1 h 42 min
Bit rate : 64 b/s
Count of elements : 1499
Stream size : 48.2 KiB (0%)
Language : English
Default : No
Forced : No

Menu
00:00:00.000 : en:01. Back from the Future
00:02:55.410 : en:02. Main Titles
00:04:15.532 : en:03. Hill Valley, 2015
00:12:42.288 : en:04. Marty Junior?
00:17:07.011 : en:05. Batter Up!
00:21:14.425 : en:06. The Almanac
00:26:57.559 : en:07. The Future McFlys
00:34:13.328 : en:08. Chicken
00:38:30.376 : en:09. Past Imperfect
00:46:10.961 : en:10. My Father?
00:50:37.049 : en:11. An Alternate 1985
00:55:34.220 : en:12. About that Book
01:01:31.744 : en:13. Back to 1955
01:07:15.796 : en:14. Biff's Lucky Day
01:14:47.539 : en:15. Back to the Dance
01:28:02.208 : en:16. Get that Book!
01:34:44.902 : en:17. Back to Normal?
01:37:47.626 : en:18. A Letter from 1985
01:40:38.839 : en:19. I'm Back!
01:43:26.890 : en:20. End Titles
Сравнения:


Скриншоты
 

Вложения

  • 15,1 KB Просмотры: 0
    Личеров 0
    Сидеров 0
    Файлов 3
    Объем 2,8 GB

Привет!

Мы группа людей которые решили помочь другим в решении их проблем, а так же пользователям с поиском самых свежих и качественных инфопродуктов. За 4 с небольшим месяца мы создали этот форум на который заходят ежедневно тысячи человек и посещаемость постоянно растёт. Мы создали панель лицензирования для защиты PHP скриптов от воровства и SEO панель для мониторинга наших сайтов и выбора верной стратегии их развития. Мы надеемся что то что мы создали пригодится Вам и возможно Вы поможете нам развиваться и совершенствоваться вместе с Вами.

Статистика форума

Темы
406.658
Сообщения
465.103
Пользователи
84.688
Новый пользователь
Knight59136

Приложения форума для iOS и Android


У ркн там нет власти ;)
Приватные разговоры
Помощь Пользователи
    Вы не присоединились ни к одной комнате.