За последнюю неделю опубликовано 93 новых материалов.
Инструкция новичку Путеводитель по форуму Прокси для Telegram Показать подсказки , это бомба!

Скачать Навсикая из долины ветров / Kaze no tani no Naushika (1984) BDRip 720p от NoLimits-Team бесплатно через торрент

  • Поучаствуй (в качестве покупателя) в любых пяти совместных покупках (кроме завершённых и "Моментальных") и получи группу "Новичок" навсегда -> ссылка на раздел
  • Получай до 480 рублей за каждого приглашенного пользователя!
    представляем Вам очередное расширение партнерской программы, подробности описаны тут -> ссылка
  • 90% материалов доступно к скачиванию после простой регистрации!
    Если же ты хочешь скачивать материалы без требования оставлять отзывы то получи группу "Новичок", 10 способов повышения описаны тут -> ссылка
  • К сожалению количество битых ссылок растет и мы уже не можем их оперативно восстанавливать поэтому просим помощи у каждого нашего пользователя.
    С сегодняшнего дня, за каждую восстановленную ссылку мы заплатим Вам.
    Подробнее тут -> ссылка
  • Перенесем твои заслуги с другого ресурса!
    Мы понимаем как сложно прокачивать аккаунты на форумах, вроде раскачал аккаунт, а тут появляется ресурс в 100 раз круче но тоже с системой прокачки и снова качать аккаунт...
    Предлагаем вам перенести Ваши заслуги на другом подобном ресурсе к нам.
    Подробности описаны тут -> ссылка
  • Вы можете получать по 2.5% с каждой покупки и продажи на маркете! Подробности в теме Партнёрская программа

Torrent_Bot

Торрент-Бот
Бот форума
4 Окт 2016
118
147
20
Информация о фильме
Название: Навсикая из долины ветров
Оригинальное название: Nausicaa of the Valley of the Wind
Год выхода: 1984
Жанр: Приключения, комедия, драма, сказка
Режиссер: Миядзаки Хаяо
Выпущено: Япония
Продолжительность: 01:57:02
Перевод: Дублированный, Английский, Японский
В ролях: Суми Симамото, Махито Цудзимура, Хисако Кёда, Горо Ная, Икиро Нагаи, Кохэй Мияучи, Дзёдзи Янами, Минору Яда, Рихоко Ёсида, Масако Сугая

Сюжет фильма
В будущем человечество, столетиями безоглядно эксплуатировавшее природу, пало жертвой своей гордыни. Землю постигла ужасная экологическая катастрофа, процветающие когда-то промышленные цивилизации обратились в прах, а поверхность планеты покрыло гигантское море Леса, испускающее в атмосферу ядовитые споры своих растений.Оставшимся в живых людям приходится жить в тени Леса и его чудовищных насекомообразных обитателей, пытаясь не допустить распространения вредоносной растительности. Мирная Долина Ветров одно из царств, образовавшихся на руинах прежних государств. Жители Долины обожают своего доброго правителя и его дочь Навсикаю, необычную девочку, находящую общий язык с исполинскими насекомыми Леса, странными порождениями нарушенной экосистемы.Но безмятежное существование Долины Ветров нарушается, когда маленькая страна становится пешкой в играх крупных воинственных соседей, сражающихся за остатки драгоценных природных ресурсов планеты. Тем не менее, скрытому потенциалу Навсикаи ещё предстоит раскрыться, и юной принцессе, возможно, удастся изменить судьбы мира

Файл
Качество: BDRip 720p (DVD5) (исходник BDRemux)
Видео: 1280x692, 4188 Кбит/сек, 23,976 кадр/сек, AVC, x264, High@L4.1, 1.85:1, 0.197 Бит/[Пиксели*Кадры], 2pass
Аудио 1: AC-3, 448 Кбит/сек, 2 канала(ов), 48,0 КГц - Дублированный (Установлен по умолчанию)
Аудио 2: AC-3, 256 Кбит/сек, 2 канала(ов), 48,0 КГц - Английский
Аудио 3: AC-3, 448 Кбит/сек, 2 канала(ов), 48,0 КГц - Японский
Субтитры: Русские | Полные
Чаптеры: Есть

a936f2d499344fd10c51a3ca82bc054f.gif


Релиз Группа | Автор Рипа:

Скриншоты
MediaInfo
Format : Matroska
Format version : Version 4 / Version 2
File size : 4.37 GiB
Duration : 1h 57mn
Overall bit rate : 5 342 Kbps
Movie name : Навсикая из долины ветров.(1984).BDRip.720p.(DVD5).[NoLimits-Team]
Encoded date : UTC 2013-04-10 13:24:02
Writing application : mkvmerge v6.0.0 ('Coming Up For Air') built on Jan 20 2013 09:52:00
Writing library : libebml v1.3.0 + libmatroska v1.4.0

Video
ID : 1
Format : AVC
Format/Info : Advanced Video Codec
Format profile : High@L4.1
Format settings, CABAC : Yes
Format settings, ReFrames : 9 frames
Codec ID : V_MPEG4/ISO/AVC
Duration : 1h 57mn
Bit rate : 4 188 Kbps
Width : 1 280 pixels
Height : 692 pixels
Display aspect ratio : 1.85:1
Frame rate mode : Constant
Frame rate : 23.976 fps
Color space : YUV
Chroma subsampling : 4:2:0
Bit depth : 8 bits
Scan type : Progressive
Bits/(Pixel*Frame) : 0.197
Stream size : 3.34 GiB (76%)
Title : Навсикая из долины ветров.(1984).BDRip.720p.(DVD5).[NoLimits-Team]
Writing library : x264 core 130 r2273 b3065e6
Encoding settings : cabac=1 / ref=9 / deblock=1:0:0 / analyse=0x3:0x133 / me=umh / subme=11 / psy=1 / psy_rd=1.00:0.00 / mixed_ref=1 / me_range=64 / chroma_me=1 / trellis=2 / 8x8dct=1 / cqm=0 / deadzone=21,11 / fast_pskip=0 / chroma_qp_offset=-2 / threads=9 / lookahead_threads=2 / sliced_threads=0 / nr=0 / decimate=1 / interlaced=0 / bluray_compat=0 / constrained_intra=0 / bframes=14 / b_pyramid=2 / b_adapt=2 / b_bias=0 / direct=3 / weightb=1 / open_gop=0 / weightp=2 / keyint=240 / keyint_min=23 / scenecut=40 / intra_refresh=0 / rc_lookahead=60 / rc=2pass / mbtree=1 / bitrate=4188 / ratetol=1.0 / qcomp=0.60 / qpmin=0 / qpmax=69 / qpstep=4 / cplxblur=20.0 / qblur=0.5 / ip_ratio=1.40 / aq=1:1.00
Language : English
Default : Yes
Forced : No

Audio #1
ID : 2
Format : AC-3
Format/Info : Audio Coding 3
Mode extension : CM (complete main)
Format settings, Endianness : Big
Codec ID : A_AC3
Duration : 1h 57mn
Bit rate mode : Constant
Bit rate : 448 Kbps
Channel(s) : 2 channels
Channel positions : Front: L R
Sampling rate : 48.0 KHz
Bit depth : 16 bits
Compression mode : Lossy
Stream size : 375 MiB (8%)
Title : Дублированный
Language : Russian
Default : Yes
Forced : No

Audio #2
ID : 3
Format : AC-3
Format/Info : Audio Coding 3
Mode extension : CM (complete main)
Format settings, Endianness : Big
Codec ID : A_AC3
Duration : 1h 57mn
Bit rate mode : Constant
Bit rate : 256 Kbps
Channel(s) : 2 channels
Channel positions : Front: L R
Sampling rate : 48.0 KHz
Bit depth : 16 bits
Compression mode : Lossy
Stream size : 214 MiB (5%)
Title : Английский
Language : English
Default : No
Forced : No

Audio #3
ID : 4
Format : AC-3
Format/Info : Audio Coding 3
Mode extension : CM (complete main)
Format settings, Endianness : Big
Codec ID : A_AC3
Duration : 1h 57mn
Bit rate mode : Constant
Bit rate : 448 Kbps
Channel(s) : 2 channels
Channel positions : Front: L R
Sampling rate : 48.0 KHz
Bit depth : 16 bits
Compression mode : Lossy
Stream size : 375 MiB (8%)
Title : Японский
Language : Japanese
Default : No
Forced : No

Text
ID : 5
Format : UTF-8
Codec ID : S_TEXT/UTF8
Codec ID/Info : UTF-8 Plain Text
Title : Русские (полные)
Language : Russian
Default : No
Forced : No

Menu
00:05:00.000 : :Chapter 01
00:10:00.000 : :Chapter 02
00:15:00.000 : :Chapter 03
00:25:00.000 : :Chapter 04
00:35:00.000 : :Chapter 05
00:45:00.000 : :Chapter 06
00:55:00.000 : :Chapter 07
01:05:00.000 : :Chapter 08
01:15:00.000 : :Chapter 09
01:25:00.000 : :Chapter 10
01:35:00.000 : :Chapter 11
01:45:00.000 : :Chapter 12
01:55:00.000 : :Chapter 13
 

Вложения

Привет!

Мы группа людей которые решили помочь другим в решении их проблем, а так же пользователям с поиском самых свежих и качественных инфопродуктов. За 4 с небольшим месяца мы создали этот форум на который заходят ежедневно тысячи человек и посещаемость постоянно растёт. Мы создали панель лицензирования для защиты PHP скриптов от воровства и SEO панель для мониторинга наших сайтов и выбора верной стратегии их развития. Мы надеемся что то что мы создали пригодится Вам и возможно Вы поможете нам развиваться и совершенствоваться вместе с Вами.

Статистика форума

Темы
394.415
Сообщения
446.776
Пользователи
75.319
Новый пользователь
Sherxonn

Приложения форума для iOS и Android


У ркн там нет власти ;)
Приватные разговоры
Помощь Пользователи
    Вы не присоединились ни к одной комнате.