За последнюю неделю опубликовано 33 новых материалов.
Инструкция новичку Путеводитель по форуму Прокси для Telegram Показать подсказки , это бомба!

Скачать Натуральные упыри / Eat Locals (2016) BDRemux 1080p | iTunes бесплатно через торрент

  • Поучаствуй (в качестве покупателя) в любых пяти совместных покупках (кроме завершённых и "Моментальных") и получи группу "Новичок" навсегда -> ссылка на раздел
  • Получай до 480 рублей за каждого приглашенного пользователя!
    представляем Вам очередное расширение партнерской программы, подробности описаны тут -> ссылка
  • 90% материалов доступно к скачиванию после простой регистрации!
    Если же ты хочешь скачивать материалы без требования оставлять отзывы то получи группу "Новичок", 10 способов повышения описаны тут -> ссылка
  • К сожалению количество битых ссылок растет и мы уже не можем их оперативно восстанавливать поэтому просим помощи у каждого нашего пользователя.
    С сегодняшнего дня, за каждую восстановленную ссылку мы заплатим Вам.
    Подробнее тут -> ссылка
  • Перенесем твои заслуги с другого ресурса!
    Мы понимаем как сложно прокачивать аккаунты на форумах, вроде раскачал аккаунт, а тут появляется ресурс в 100 раз круче но тоже с системой прокачки и снова качать аккаунт...
    Предлагаем вам перенести Ваши заслуги на другом подобном ресурсе к нам.
    Подробности описаны тут -> ссылка
  • Вы можете получать по 2.5% с каждой покупки и продажи на маркете! Подробности в теме Партнёрская программа
Если Вы не хотите скачивать, Вы всегда можетепосмотретьонлайн, просто нажмите кнопку ниже :

Открыть плеер

Torrent_Bot

Торрент-Бот
Бот форума
4 Окт 2016
96
155
20
Информация о фильме
Название: Натуральные упыри
Оригинальное название: Eat Locals
Год выхода: 2016
Жанр: ужасы, боевик, комедия
Режиссер: Джейсон Флеминг
В ролях: Билли Кук, Чарли Кокс, Макензи Крук, Тони Кёрран, Винсент Риган, Фрима Аджьеман, Ив Майлс, Декстер Флетчер, Ник Моран, Николас Роу

О фильме:
Раз в 50 лет группа из восьми вампиров собирается на встречу где-то в тихой сельской местности в Британии. На этот раз к ним случайно попадает парень Себастиан, который думал, что идёт на свидание, а вампиры предложили ему стать своим. Но интересную беседу закончить не удаётся, оказывается, что дом окружил специальный отряд по борьбе с вампирами.



Страна: Великобритания
Студия: Evolution Pictures, Reign Of Blood, Reign of Blood
Продолжительность: 01:33:34
Перевод: Дублированный [iTunes]

Файл
Кодек: x264
Качество: BDRemux 1080p
Видео: MPEG-4 AVC, 17,6 Мбит/с, 1920x1080, 23,976 кадра/сек
Звук 1: Русский (AC3, 6 ch, 384 Кбит/с)
Звук 2: Английский (DTS, 6 ch, 1509 Кбит/с)
Субтитры: отсутствуют

MI
Общее
Уникальный идентификатор : 249340790731482639508342086386314800569 (0xBB954A1E28CC185CB6FF7935789A6DB9)
Полное имя : D:новые фильмы 41Eat.Local.2017.BDREMUX 1080p.mkv
Формат : Matroska
Версия формата : Version 4 / Version 2
Размер файла : 13,0 Гбайт
Продолжительность : 1 ч. 33 м.
Режим общего битрейта : Переменный
Общий поток : 19,9 Мбит/сек
Название фильма : Eat.Local.2017.BDREMUX 1080p
Дата кодирования : UTC 2017-12-22 17:54:47
Программа кодирования : mkvmerge v6.0.0 ('Coming Up For Air') built on Jan 20 2013 09:52:00
Библиотека кодирования : libebml v1.3.0 + libmatroska v1.4.0
Attachment : Yes / Yes / Yes / Yes

Видео
Идентификатор : 1
Формат : AVC
Формат/Информация : Advanced Video Codec
Профиль формата : [email protected]
Параметр CABAC формата : Да
Параметр ReFrames формата : 3 кадра
Идентификатор кодека : V_MPEG4/ISO/AVC
Продолжительность : 1 ч. 33 м.
Вид битрейта : Переменный
Битрейт : 17,6 Мбит/сек
Максимальный битрейт : 37,0 Мбит/сек
Ширина : 1920 пикселей
Высота : 1080 пикселей
Соотношение сторон : 16:9
Режим частоты кадров : Постоянный
Частота кадров : 23,976 кадра/сек
Цветовое пространство : YUV
Субдискретизация насыщенности : 4:2:0
Битовая глубина : 8 бит
Тип развёртки : Прогрессивная
Бит/(Пиксели*Кадры) : 0.355
Размер потока : 11,5 Гбайт (89%)
Заголовок : Eat.Local.2017.BDREMUX 1080p
Язык : English
Default : Нет
Forced : Нет

Аудио #1
Идентификатор : 2
Формат : AC-3
Формат/Информация : Audio Coding 3
Расширение режима : CM (complete main)
Параметр Endianness формата : Big
Идентификатор кодека : A_AC3
Продолжительность : 1 ч. 33 м.
Вид битрейта : Постоянный
Битрейт : 384 Кбит/сек
Каналы : 6 каналов
Расположение каналов : Front: L C R, Side: L R, LFE
Частота : 48,0 КГц
Битовая глубина : 16 бит
Метод сжатия : С потерями
Размер потока : 257 Мбайт (2%)
Заголовок : Dub (iTunes)
Язык : Russian
Default : Да
Forced : Нет

Аудио #2
Идентификатор : 3
Формат : DTS
Формат/Информация : Digital Theater Systems
Режим : 16
Параметр Endianness формата : Big
Идентификатор кодека : A_DTS
Продолжительность : 1 ч. 33 м.
Вид битрейта : Постоянный
Битрейт : 1509 Кбит/сек
Каналы : 6 каналов
Расположение каналов : Front: L C R, Side: L R, LFE
Частота : 48,0 КГц
Битовая глубина : 16 бит
Метод сжатия : С потерями
Размер потока : 1010 Мбайт (8%)
Заголовок : Original
Язык : English
Default : Нет
Forced : Нет

Меню
00:00:00.000 : en:Chapter 01
00:10:47.521 : en:Chapter 02
00:16:03.587 : en:Chapter 03
00:25:47.963 : en:Chapter 04
00:30:31.538 : en:Chapter 05
00:37:34.669 : en:Chapter 06
00:45:39.403 : en:Chapter 07
00:52:46.288 : en:Chapter 08
01:00:03.683 : en:Chapter 09
01:08:14.548 : en:Chapter 10
01:16:06.645 : en:Chapter 11
01:24:01.244 : en:Chapter 12
Скриншоты

Релиз от: funtden
 

Вложения

  • 66,1 KB Просмотры: 1
    Личеров 0
    Сидеров 0
    Файлов 1
    Объем 13 GB

Привет!

Мы группа людей которые решили помочь другим в решении их проблем, а так же пользователям с поиском самых свежих и качественных инфопродуктов. За 4 с небольшим месяца мы создали этот форум на который заходят ежедневно тысячи человек и посещаемость постоянно растёт. Мы создали панель лицензирования для защиты PHP скриптов от воровства и SEO панель для мониторинга наших сайтов и выбора верной стратегии их развития. Мы надеемся что то что мы создали пригодится Вам и возможно Вы поможете нам развиваться и совершенствоваться вместе с Вами.

Статистика форума

Темы
406.508
Сообщения
464.523
Пользователи
82.799
Новый пользователь
korazon

Приложения форума для iOS и Android


У ркн там нет власти ;)
Приватные разговоры
Помощь Пользователи
    Вы не присоединились ни к одной комнате.