За последнюю неделю опубликовано 0 новых материалов.
Инструкция новичку Путеводитель по форуму Прокси для Telegram Показать подсказки , это бомба!

Скачать Настоятель 2 (2011) DVB бесплатно через торрент

  • Поучаствуй (в качестве покупателя) в любых пяти совместных покупках (кроме завершённых и "Моментальных") и получи группу "Новичок" навсегда -> ссылка на раздел
  • Получай до 480 рублей за каждого приглашенного пользователя!
    представляем Вам очередное расширение партнерской программы, подробности описаны тут -> ссылка
  • 90% материалов доступно к скачиванию после простой регистрации!
    Если же ты хочешь скачивать материалы без требования оставлять отзывы то получи группу "Новичок", 10 способов повышения описаны тут -> ссылка
  • К сожалению количество битых ссылок растет и мы уже не можем их оперативно восстанавливать поэтому просим помощи у каждого нашего пользователя.
    С сегодняшнего дня, за каждую восстановленную ссылку мы заплатим Вам.
    Подробнее тут -> ссылка
  • Перенесем твои заслуги с другого ресурса!
    Мы понимаем как сложно прокачивать аккаунты на форумах, вроде раскачал аккаунт, а тут появляется ресурс в 100 раз круче но тоже с системой прокачки и снова качать аккаунт...
    Предлагаем вам перенести Ваши заслуги на другом подобном ресурсе к нам.
    Подробности описаны тут -> ссылка
  • Вы можете получать по 2.5% с каждой покупки и продажи на маркете! Подробности в теме Партнёрская программа
Если Вы не хотите скачивать, Вы всегда можетепосмотретьонлайн, просто нажмите кнопку ниже :

Открыть плеер

Torrent_Bot

Торрент-Бот
Бот форума
4 Окт 2016
79
196
20
Жанр: Криминал, драма
Год выпуска: 2011
Страна: Россия
Выпущено: Триикс Медиа
Продолжительность: 1 ч. 29 м. 53 с.
Перевод: Оригинал
Источник: собственный рип

Режиссёр: Игорь Москвитин

В ролях: Егор Пазенко, Андрей Чубченко, Анна Табанина, Дмитрий Лебедев, Павел Миронов, Кирилл Датешидзе, Наталья Ткаченко, Вадим Парфенов, Геша Меньшиков, Федор Коносов и др.

Описание: Отец Андрей жил мирно: читал проповеди, иногда заглядывал в бар, чтобы пообщаться с прихожанами в неформальной обстановке, опекал Катю и ее сына Гришку. В городе после того, как был арестован и посажен Агафонов, воцарились тишь да благодать. Происшествия, конечно, случались, но начальник местной милиции Муров уверенно стоял на страже закона и порядка. И вдруг, как гром среди ясного неба, — дерзкое ограбление и захват заложников. Отцу Андрею удается спасти маленькую Юлю, убедив бандитов отпустить девочку. Вот только этот печальный инцидент оказался лишь первым звоночком. Сначала в город приехал Иван Лебедев — бывший подельник Андрея. Настоятель, не помня зла, помог Ивану, несмотря на его дурную репутацию, освоиться в городке. Но вскоре из Питера прибывают и другие гости — жестокая банда. У отца Андрея не остается выбора: он вынужден вновь взяться за оружие…

Доп. информация: Хотел сделать и XviD 720x400, но, пока не могу ничего обещать, много других важных дел.. если есть желающие, - сделайте из этого исходника.



Качество видео: DVB
Формат видео: MPG

Видео: MPEG2, 720х576, 4300 kbps (VBR), 25 fps
Аудио: MP2, 48 kHz, 192 kbps, 2 ch
MediaInfo
General
Complete name : D:TempНастоятель-2.mpg
Format : MPEG-PS
File size : 2.88 GiB
Duration : 1h 29mn
Overall bit rate : 4 585 Kbps
Writing library : (c) 1998-2011 Womble Multimedia, Inc. / MPEG Video Wizard DVD 5.0.1.100 (03/2011) / May 11 2011

Video
ID : 224 (0xE0)
Format : MPEG Video
Format version : Version 2
Format profile : [email protected]
Format settings, BVOP : Yes
Format settings, Matrix : Default
Duration : 1h 29mn
Bit rate mode : Variable
Bit rate : 4 302 Kbps
Nominal bit rate : 15.0 Mbps
Width : 720 pixels
Height : 576 pixels
Display aspect ratio : 4:3
Frame rate : 25.000 fps
Standard : PAL
Color space : YUV
Chroma subsampling : 4:2:0
Bit depth : 8 bits
Scan type : Progressive
Scan order : Top Field First
Bits/(Pixel*Frame) : 0.415
Stream size : 2.70 GiB (94%)
Writing library : (c) 1998-2011 Womble Multimedia, Inc. / MPEG Video Wizard DVD 5.0.1.100 (03/2011) / May 11 2011

Audio
ID : 192 (0xC0)
Format : MPEG Audio
Format version : Version 1
Format profile : Layer 2
Duration : 1h 29mn
Bit rate mode : Constant
Bit rate : 192 Kbps
Channel(s) : 2 channels
Sampling rate : 48.0 KHz
Stream size : 124 MiB (4%)
Скриншоты

 

Вложения

  • 15,4 KB Просмотры: 0
    Личеров 0
    Сидеров 0
    Файлов 1
    Объем 2,9 GB

Привет!

Мы группа людей которые решили помочь другим в решении их проблем, а так же пользователям с поиском самых свежих и качественных инфопродуктов. За 4 с небольшим месяца мы создали этот форум на который заходят ежедневно тысячи человек и посещаемость постоянно растёт. Мы создали панель лицензирования для защиты PHP скриптов от воровства и SEO панель для мониторинга наших сайтов и выбора верной стратегии их развития. Мы надеемся что то что мы создали пригодится Вам и возможно Вы поможете нам развиваться и совершенствоваться вместе с Вами.

Статистика форума

Темы
414.370
Сообщения
475.396
Пользователи
96.561
Новый пользователь
starushka

Приложения форума для iOS и Android


У ркн там нет власти ;)
Приватные разговоры
Помощь Пользователи
    Вы не присоединились ни к одной комнате.