За последнюю неделю опубликовано 47 новых материалов.
Инструкция новичку Путеводитель по форуму Прокси для Telegram Показать подсказки , это бомба!

Скачать Настоящие боссы / Гламурные боссы / Like a Boss (2020) BDRemux 1080p от ExKinoRay | iTunes бесплатно через торрент

  • Поучаствуй (в качестве покупателя) в любых пяти совместных покупках (кроме завершённых и "Моментальных") и получи группу "Новичок" навсегда -> ссылка на раздел
  • Получай до 480 рублей за каждого приглашенного пользователя!
    представляем Вам очередное расширение партнерской программы, подробности описаны тут -> ссылка
  • 90% материалов доступно к скачиванию после простой регистрации!
    Если же ты хочешь скачивать материалы без требования оставлять отзывы то получи группу "Новичок", 10 способов повышения описаны тут -> ссылка
  • К сожалению количество битых ссылок растет и мы уже не можем их оперативно восстанавливать поэтому просим помощи у каждого нашего пользователя.
    С сегодняшнего дня, за каждую восстановленную ссылку мы заплатим Вам.
    Подробнее тут -> ссылка
  • Перенесем твои заслуги с другого ресурса!
    Мы понимаем как сложно прокачивать аккаунты на форумах, вроде раскачал аккаунт, а тут появляется ресурс в 100 раз круче но тоже с системой прокачки и снова качать аккаунт...
    Предлагаем вам перенести Ваши заслуги на другом подобном ресурсе к нам.
    Подробности описаны тут -> ссылка
  • Вы можете получать по 2.5% с каждой покупки и продажи на маркете! Подробности в теме Партнёрская программа
Если Вы не хотите скачивать, Вы всегда можетепосмотретьонлайн, просто нажмите кнопку ниже :

Открыть плеер

Torrent_Bot

Торрент-Бот
Бот форума
4 Окт 2016
93
160
20



Информация о фильме
Название: Настоящие боссы / Гламурные боссы
Оригинальное название: Like a Boss
Год выхода: 2020
Жанр: Комедия
Режиссер: Мигель Артета
В ролях: Роуз Бирн, Тиффани Хэддиш, Сальма Хайек, Билли Портер, Дженнифер Кулидж, Эри Грейнор, Каран Сони, Райан Хансен, Джессика Ст. Клер, Джейкоб Латимор

О фильме:
Будучи лучшими подругами ещё с колледжа, Миа и Мел управляют небольшой косметической компанией, которую создали с нуля. Девушки всё делают вместе и даже живут в одном доме. Их бизнес находится на грани разорения, когда подруги получают предложение, от которого невозможно отказаться — титан отрасли Клэр Луна предлагает оплатить их долги в обмен на долю в компании. Мел видит в этом спасение, а Миа, хоть и подозревает неладное, но тоже соглашается, и теперь многолетней дружбе девушек предстоит проверка на прочность.




Страна: США
Студия: Artists First, Paramount Pictures
Продолжительность: 01:23:25
Перевод: Дублированный | iTunes

Файл
Формат: MKV
Качество: BDRemux 1080p
Видео: MPEG-4 AVC, 30,3 Мбит/с, 1920x1080
Аудио 1: Русский (AC3, 6 ch, 384 Кбит/с) DUB (iTunes)
Аудио 2: Английский (TrueHD, 8 ch, 3131 Кбит/с) Original
Субтитры: Русские (Forced, full), английские

Семпл

М/И
Общее
Уникальный идентификатор : 240609947355687498185108442497537116944 (0xB503CA4E04DD537FA6BDE81D11C58B10)
Полное имя : D:РаздачаBossy.2020.BDRemux 1080p.ExKinoRay.mkv
Формат : Matroska
Версия формата : Version 4 / Version 2
Размер файла : 19,8 Гбайт
Продолжительность : 1 ч. 23 м.
Режим общего битрейта : Переменный
Общий поток : 33,9 Мбит/сек
Название фильма : Like a Boss.2020.BDRemux 1080p.grab777 & ExKinoRay
Дата кодирования : UTC 2020-05-30 01:44:21
Программа кодирования : mkvmerge v7.3.0 ('Nouages') 64bit built on Oct 22 2014 18:53:34
Библиотека кодирования : libebml v1.3.0 + libmatroska v1.4.1

Видео
Идентификатор : 1
Формат : AVC
Формат/Информация : Advanced Video Codec
Профиль формата : [email protected]
Настройки формата : CABAC / 4 Ref Frames
Параметр CABAC формата : Да
Параметр RefFrames формата : 4 кадра
Идентификатор кодека : V_MPEG4/ISO/AVC
Продолжительность : 1 ч. 23 м.
Вид битрейта : Переменный
Битрейт : 30,3 Мбит/сек
Максимальный битрейт : 33,8 Мбит/сек
Ширина : 1920 пикселей
Высота : 1080 пикселей
Соотношение сторон : 16:9
Режим частоты кадров : Постоянный
Частота кадров : 23,976 (24000/1001) кадра/сек
Цветовое пространство : YUV
Субдискретизация насыщенности : 4:2:0
Битовая глубина : 8 бит
Тип развёртки : Прогрессивная
Бит/(Пиксели*Кадры) : 0.609
Размер потока : 17,7 Гбайт (89%)
Заголовок : grab777
Язык : English
Default : Да
Forced : Нет

Аудио #1
Идентификатор : 2
Формат : AC-3
Формат/Информация : Audio Coding 3
Параметр Endianness формата : Big
Идентификатор кодека : A_AC3
Продолжительность : 1 ч. 23 м.
Вид битрейта : Постоянный
Битрейт : 384 Кбит/сек
Каналы : 6 каналов
Расположение каналов : Front: L C R, Side: L R, LFE
Частота : 48,0 КГц
Частота кадров : 31,250 кадров/сек (1536 SPF)
Битовая глубина : 16 бит
Метод сжатия : С потерями
Размер потока : 229 Мбайт (1%)
Заголовок : DUB (iTunes)
Язык : Russian
Default : Да
Forced : Да

Аудио #2
Идентификатор : 3
Формат : TrueHD
Идентификатор кодека : A_TRUEHD
Продолжительность : 1 ч. 23 м.
Вид битрейта : Переменный
Битрейт : 3131 Кбит/сек
Максимальный битрейт : 5004 Кбит/сек
Каналы : 8 каналов
Расположение каналов : Front: L C R, Side: L R, Back: L R, LFE
Частота : 48,0 КГц
Частота кадров : 1200,000 кадров/сек (40 SPF)
Метод сжатия : Без потерь
Размер потока : 1,82 Гбайт (9%)
Заголовок : Original
Язык : English
Default : Нет
Forced : Нет

Текст #1
Идентификатор : 4
Формат : UTF-8
Идентификатор кодека : S_TEXT/UTF8
Идентификатор кодека/Информация : UTF-8 Plain Text
Продолжительность : 1 ч. 17 м.
Битрейт : 1 бит/сек
ElementCount : 21
Размер потока : 833 байт (0%)
Заголовок : Forced
Язык : Russian
Default : Нет
Forced : Да

Текст #2
Идентификатор : 5
Формат : UTF-8
Идентификатор кодека : S_TEXT/UTF8
Идентификатор кодека/Информация : UTF-8 Plain Text
Продолжительность : 1 ч. 22 м.
Битрейт : 134 бит/сек
ElementCount : 1457
Размер потока : 81,8 Кбайт (0%)
Заголовок : Full
Язык : Russian
Default : Нет
Forced : Нет

Текст #3
Идентификатор : 6
Формат : UTF-8
Идентификатор кодека : S_TEXT/UTF8
Идентификатор кодека/Информация : UTF-8 Plain Text
Продолжительность : 1 ч. 20 м.
Битрейт : 92 бит/сек
ElementCount : 1516
Размер потока : 54,4 Кбайт (0%)
Заголовок : SRT
Язык : English
Default : Нет
Forced : Нет

Текст #4
Идентификатор : 7
Формат : PGS
Режим смешивания : zlib
Идентификатор кодека : S_HDMV/PGS
Идентификатор кодека/Информация : Picture based subtitle format used on BDs/HD-DVDs
Продолжительность : 1 ч. 20 м.
Битрейт : 34,1 Кбит/сек
ElementCount : 3422
Размер потока : 19,7 Мбайт (0%)
Заголовок : PGS
Язык : English
Default : Нет
Forced : Нет

Меню
00:00:00.000 : en:Chapter 01
00:05:31.998 : en:Chapter 02
00:14:59.690 : en:Chapter 03
00:23:37.833 : en:Chapter 04
00:30:46.886 : en:Chapter 05
00:39:26.989 : en:Chapter 06
00:49:39.768 : en:Chapter 07
01:00:43.431 : en:Chapter 08
01:10:10.456 : en:Chapter 09
01:19:22.048 : en:Chapter 10
Скриншоты
Релиз от:
 

Вложения

  • 100,2 KB Просмотры: 0
    Личеров 0
    Сидеров 0
    Файлов 1
    Объем 19,8 GB

Привет!

Мы группа людей которые решили помочь другим в решении их проблем, а так же пользователям с поиском самых свежих и качественных инфопродуктов. За 4 с небольшим месяца мы создали этот форум на который заходят ежедневно тысячи человек и посещаемость постоянно растёт. Мы создали панель лицензирования для защиты PHP скриптов от воровства и SEO панель для мониторинга наших сайтов и выбора верной стратегии их развития. Мы надеемся что то что мы создали пригодится Вам и возможно Вы поможете нам развиваться и совершенствоваться вместе с Вами.

Статистика форума

Темы
406.639
Сообщения
465.113
Пользователи
84.584
Новый пользователь
vax51371

Приложения форума для iOS и Android


У ркн там нет власти ;)
Приватные разговоры
Помощь Пользователи
    Вы не присоединились ни к одной комнате.