За последнюю неделю опубликовано 30 новых материалов.
Инструкция новичку Путеводитель по форуму Прокси для Telegram Показать подсказки , это бомба!

Скачать Наследие лжи / Legacy of Lies (2020) WEB-DLRip от MediaBit | L бесплатно через торрент

  • Поучаствуй (в качестве покупателя) в любых пяти совместных покупках (кроме завершённых и "Моментальных") и получи группу "Новичок" навсегда -> ссылка на раздел
  • Получай до 480 рублей за каждого приглашенного пользователя!
    представляем Вам очередное расширение партнерской программы, подробности описаны тут -> ссылка
  • 90% материалов доступно к скачиванию после простой регистрации!
    Если же ты хочешь скачивать материалы без требования оставлять отзывы то получи группу "Новичок", 10 способов повышения описаны тут -> ссылка
  • К сожалению количество битых ссылок растет и мы уже не можем их оперативно восстанавливать поэтому просим помощи у каждого нашего пользователя.
    С сегодняшнего дня, за каждую восстановленную ссылку мы заплатим Вам.
    Подробнее тут -> ссылка
  • Перенесем твои заслуги с другого ресурса!
    Мы понимаем как сложно прокачивать аккаунты на форумах, вроде раскачал аккаунт, а тут появляется ресурс в 100 раз круче но тоже с системой прокачки и снова качать аккаунт...
    Предлагаем вам перенести Ваши заслуги на другом подобном ресурсе к нам.
    Подробности описаны тут -> ссылка
  • Вы можете получать по 2.5% с каждой покупки и продажи на маркете! Подробности в теме Партнёрская программа
Если Вы не хотите скачивать, Вы всегда можетепосмотретьонлайн, просто нажмите кнопку ниже :

Открыть плеер

Torrent_Bot

Торрент-Бот
Бот форума
4 Окт 2016
93
160
20



Информация о фильме
Название: Наследие лжи
Оригинальное название: Legacy of Lies
Год выхода: 2020
Жанр: Триллер, боевик
Режиссер: Эд Бол
В ролях: Скотт Эдкинс, Хонор Книфси, Мэтт Митлер, Мартин МакДугал, Андреа Василиу, Сами Карим, Том Эшли, Леон Суа, Юлия Соболь, Марко Робинсон

О фильме: Так случилось, что Мартин Бакстлер принял решения уйти из спецслужб ЦРУ. Через какое-то время, экс-агент решает кинуть вызов своим бывшим сотрудникам, дабы раскрыть мировой заговор. По ходу всего этого, мужчина знакомиться с украинской журналисткой, которая любит влезать во всякие темные дела. Девушке удалось разыскать секретные материалы, которые могут сыграть большую роль в политической игре. Главные герои объединяются чтобы наконец-то положить конец всей несправедливости, бесчеловечности и жестокости. Крупные игроки не остановятся, пока не добьются своего, ведь система уже построена и они менять ничего не собираются.



Страна: Нидерланды, Великобритания, Польша, Украина, США
Студия: 13 Films, EagerFilms, Film Polska Production, Legacy Films, Sarke Studio, Toy Cinema, Ukrainian State Film Agency
Продолжительность: 01:41:29
Перевод: Любительский многоголосый | @[email protected]

Файл
Кодек: XviD
Качество: WEB-DLRip
Видео: 1722 Кбит/с, 720x304, 23.976 кадр/с
Звук: AC3, 48 Гц, 256 Кбит/сек, 2 ch (L + R) | MVO | @[email protected]


MI
Общее
Полное имя : D:ТоррентыLegacy.of.Lies.2020.1080p.AMZN.WEB-DL.DDP5.1.x264Nasledie.lzhy.2020.XviD.WEB-DLRip-MediaBit.avi
Формат : AVI
Формат/Информация : Audio Video Interleave
Профиль формата : OpenDML
Размер файла : 1,41 Гбайт
Продолжительность : 1 ч. 41 м.
Общий поток : 1 987 Кбит/сек
Название фильма : Bitru presents - Наследие лжи / Legacy of Lies (2020)
Программа кодирования : Lavf58.20.100

Видео
Идентификатор : 0
Формат : MPEG-4 Visual
Профиль формата : Advanced [email protected]
Настройки формата : BVOP1 / Custom Matrix
Параметр BVOP формата : 1
Параметр QPel формата : Нет
Параметр GMC формата : Без точки перехода
Параметр матрицы формата : Выборочная
Идентификатор кодека : XVID
Идентификатор кодека/Подсказка : XviD
Продолжительность : 1 ч. 41 м.
Битрейт : 1 722 Кбит/сек
Ширина : 720 пикселей
Высота : 304 пикселя
Соотношение сторон : 2,40:1
Частота кадров : 23,976 (24000/1001) кадра/сек
Цветовое пространство : YUV
Субдискретизация насыщенности : 4:2:0
Битовая глубина : 8 бит
Тип развёртки : Прогрессивная
Метод сжатия : С потерями
Бит/(Пиксели*Кадры) : 0.328
Размер потока : 1,22 Гбайт (86%)
Заголовок : MediaBit
Библиотека кодирования : XviD 67

Аудио
Идентификатор : 1
Формат : AC-3
Формат/Информация : Audio Coding 3
Коммерческое название : Dolby Digital
Идентификатор кодека : 2000
Продолжительность : 1 ч. 41 м.
Вид битрейта : Постоянный
Битрейт : 256 Кбит/сек
Каналы : 2 канала
Channel layout : L R
Частота : 48,0 КГц
Частота кадров : 31,250 кадров/сек (1536 SPF)
Битовая глубина : 16 бит
Метод сжатия : С потерями
Размер потока : 186 Мбайт (13%)
Выравнивание : Соединение по промежуткам
Продолжительность промежутка : 32 мс. (0,77 видеокадр)
Заголовок : MVO | @[email protected] / MediaBit
Service kind : Complete Main
Скриншоты

Релиз от:
 

Вложения

  • 17,5 KB Просмотры: 0
    Личеров 0
    Сидеров 0
    Файлов 1
    Объем 1,4 GB

Привет!

Мы группа людей которые решили помочь другим в решении их проблем, а так же пользователям с поиском самых свежих и качественных инфопродуктов. За 4 с небольшим месяца мы создали этот форум на который заходят ежедневно тысячи человек и посещаемость постоянно растёт. Мы создали панель лицензирования для защиты PHP скриптов от воровства и SEO панель для мониторинга наших сайтов и выбора верной стратегии их развития. Мы надеемся что то что мы создали пригодится Вам и возможно Вы поможете нам развиваться и совершенствоваться вместе с Вами.

Статистика форума

Темы
406.605
Сообщения
465.025
Пользователи
84.383
Новый пользователь
wazice

Приложения форума для iOS и Android


У ркн там нет власти ;)
Приватные разговоры
Помощь Пользователи
    Вы не присоединились ни к одной комнате.