За последнюю неделю опубликовано 30 новых материалов.
Инструкция новичку Путеводитель по форуму Прокси для Telegram Показать подсказки , это бомба!

Скачать Наш бренд – кризис / Our Brand Is Crisis (2015) BDRip 720p | D, P, A бесплатно через торрент

  • Поучаствуй (в качестве покупателя) в любых пяти совместных покупках (кроме завершённых и "Моментальных") и получи группу "Новичок" навсегда -> ссылка на раздел
  • Получай до 480 рублей за каждого приглашенного пользователя!
    представляем Вам очередное расширение партнерской программы, подробности описаны тут -> ссылка
  • 90% материалов доступно к скачиванию после простой регистрации!
    Если же ты хочешь скачивать материалы без требования оставлять отзывы то получи группу "Новичок", 10 способов повышения описаны тут -> ссылка
  • К сожалению количество битых ссылок растет и мы уже не можем их оперативно восстанавливать поэтому просим помощи у каждого нашего пользователя.
    С сегодняшнего дня, за каждую восстановленную ссылку мы заплатим Вам.
    Подробнее тут -> ссылка
  • Перенесем твои заслуги с другого ресурса!
    Мы понимаем как сложно прокачивать аккаунты на форумах, вроде раскачал аккаунт, а тут появляется ресурс в 100 раз круче но тоже с системой прокачки и снова качать аккаунт...
    Предлагаем вам перенести Ваши заслуги на другом подобном ресурсе к нам.
    Подробности описаны тут -> ссылка
  • Вы можете получать по 2.5% с каждой покупки и продажи на маркете! Подробности в теме Партнёрская программа
Если Вы не хотите скачивать, Вы всегда можетепосмотретьонлайн, просто нажмите кнопку ниже :

Открыть плеер

Torrent_Bot

Торрент-Бот
Бот форума
4 Окт 2016
93
155
20
Информация о фильме
Название: Наш бренд – кризис
Оригинальное название: Our Brand Is Crisis
Год выпуска: 2015
Жанр: драма, комедия
Режиссер: Дэвид Гордон Грин
В ролях: Сандра Буллок (Jane), Билли Боб Торнтон (Pat Candy), Энтони Маки (Ben), Жоаки де Алмейда (Castillo), Энн Дауд (Nell), Скут МакНэри (Buckley), Зои Казан (LeBlanc), Стивен Флорес (Hugo), Рейнальдо Пачеко (Eddie), Луис Арселла (Rivera), Октавио Гомез (Pepe), Луис Чавес (Abraham)

О фильме: Сандра Буллок, Билли Боб Торнтон, Зои Казан и Энтони Маки в комедийной драме Дэвида Гордона Грина. Главная героиня Джейн Бодин занимается планированием избирательных кампаний. После одной ошибки, приведшей к крупному скандалу, Джейн теряет работу и получает нелестное прозвище «Катастрофа». Тем не менее она остается высококлассным профессионалом. И вскоре ей выпадает второй шанс: Джейн отправляется в Боливию, чтобы организовать предвыборную кампанию кандидата в президенты Педро Галло. Судя по последним опросам, его шансы весьма невелики. Народ видит Галло закрытым человеком, что отталкивает от него электорат. Прибыв на место, Джейн узнает, что их соперником в предвыборной битве станет Пэт Кэнди – старый конкурент и враг Джейн, ныне поддерживающий оппонентов Галло. Этот факт только подстегивает героиню к борьбе за голоса избирателей и за победу, что будет, естественно, крайне непросто. Для того чтобы узнать, как дальше будут развиваться события и сможет ли Джейн добиться успеха.



MPAA: R - Лицам до 17 лет обязательно присутствие взрослого

Страна: США
Студия: Participant Media, Smokehouse Pictures
Продолжительность: 01:47:31
Перевод: Профессиональный (дублированный), Профессиональный (многоголосый, закадровый), Авторский (одноголосый, закадровый)

Файл
Качество: BDRip 720p | IDE
Формат: Matroska
Видео: 1280x720 at 23.976 fps, x264, ~7600 kbps avg
Аудио#1: Russian: 48 kHz, AC3, 3/2 (L,C,R,l,r) + LFE ch, ~640 kbps avg |Многоголосый закадровый, СВ Студия|
Аудио#2: Russian: 48 kHz, AC3, 2/0 (L,R) ch, ~192 kbps avg |Дубляж, SDI Media|
Аудио#3: Russian: 48 kHz, AC3, 3/2 (L,C,R,l,r) + LFE ch, ~640 kbps avg |Авторский, А.Дольский|
Аудио#4: English: 48 kHz, AC3, 3/2 (L,C,R,l,r) + LFE ch, ~640 kbps avg
Субтитры: Russian (СВ Студия), English (Forced, Full, SDH)

***Сохранены оригинальные главы как на Blu-ray.
***За исходную запись с дублированным переводом спасибо: flaSI-I.
***Релиз: ylnian & FilmsClub.

Знаете ли вы, что...
На одну из ролей в фильме утвердили Джорджа Клуни, но он проект покинул, и роль досталась Билли Бобу Торнтону.
Фильм рассказывает об участии американской компании Greenberg, Carville, Shrum в президентских выборах в Боливии в 2002 году.
Изначально протагонист в фильме был мужчиной, но режиссёр Дэвид Гордон Грин и автор сценария Питер Строхан переписали эту роль под Сандру Буллок.
Съёмки по большей части проходили в Новом Орлеане, Лос-Анджелесе и Пуэрто-Рико.
Во время интервью с Джейн в самом начале фильма в кадре мельком появляется чёрно-белое фото Джейн в прошлом. В действительности это снимок исполнительницы роли Джейн актрисы Сандры Буллок в триллере «Сеть» (Ирвин Уинклер, 1995).
Сценарий фильма вошёл в т. н. «чёрный список» 2008 года — перечень самых многообещающих, но не реализованных проектов.
Фоном при демонстрации финальных титров идёт La Partida в исполнении чилийской группы Inti Illimani. Это аранжировка композиции Виктора Хары — чилийского певца и активиста компартии, убитого путчистами во время военного переворота в 1973 году.
Когда героине Сандры Буллок сообщают, что кандидат Кастильо в исполнении Жоакима ди Алмейда нарушил данное во время избирательной кампании обещание по поводу МВФ, та отвечает: «Как сказал один мудрец: «Если бы выборы что-то меняли, то их объявили бы вне закона». В действительности эта фраза принадлежит женщине, Эмме Гольдман (1868-1940). Эта анархистка, известная как Красная Эмма, в 1919 году была депортирована в Советскую Россию.
MediaInfo
Общее
Уникальный идентификатор : 150680526427836759120405677170126103869 (0x715C0387A1F6AF77F42E15F2621A253D)
Полное имя : Our.Brand.Is.Crisis.2015.BDRip.720p-ylnian.mkv
Формат : Matroska
Версия формата : Version 4 / Version 2
Размер файла : 7,45 Гбайт
Продолжительность : 1 ч. 47 м.
Общий поток : 9919 Кбит/сек
Название фильма : Our.Brand.Is.Crisis.2015.BDRip.720p-ylnian
Дата кодирования : UTC 2018-08-23 15:36:53
Программа кодирования : mkvmerge v25.0.0 ('Prog Noir') 64-bit
Библиотека кодирования : libebml v1.3.6 + libmatroska v1.4.9

Видео
Идентификатор : 1
Формат : AVC
Формат/Информация : Advanced Video Codec
Профиль формата : High@L4.1
Параметр CABAC формата : Да
Параметр ReFrames формата : 9 кадров
Идентификатор кодека : V_MPEG4/ISO/AVC
Продолжительность : 1 ч. 47 м.
Битрейт : 7610 Кбит/сек
Ширина : 1280 пикселей
Высота : 720 пикселей
Соотношение сторон : 16:9
Режим частоты кадров : Постоянный
Частота кадров : 23,976 кадра/сек
Цветовое пространство : YUV
Субдискретизация насыщенности : 4:2:0
Битовая глубина : 8 бит
Тип развёртки : Прогрессивная
Бит/(Пиксели*Кадры) : 0.344
Размер потока : 5,72 Гбайт (77%)
Заголовок : Our.Brand.Is.Crisis.2015.720p.BluRay.DD5.1.x264-IDE
Библиотека кодирования : x264 core 148 r2638 7599210
Настройки программы : cabac=1 / ref=9 / deblock=1:-3:-3 / analyse=0x3:0x133 / me=umh / subme=10 / psy=1 / psy_rd=1.05:0.00 / mixed_ref=1 / me_range=48 / chroma_me=1 / trellis=2 / 8x8dct=1 / cqm=0 / deadzone=21,11 / fast_pskip=1 / chroma_qp_offset=-2 / threads=8 / lookahead_threads=2 / sliced_threads=0 / nr=0 / decimate=1 / interlaced=0 / bluray_compat=0 / constrained_intra=0 / bframes=10 / b_pyramid=2 / b_adapt=2 / b_bias=0 / direct=3 / weightb=1 / open_gop=0 / weightp=2 / keyint=250 / keyint_min=23 / scenecut=40 / intra_refresh=0 / rc_lookahead=150 / rc=crf / mbtree=0 / crf=18.2 / qcomp=0.70 / qpmin=0 / qpmax=69 / qpstep=4 / vbv_maxrate=50000 / vbv_bufsize=62500 / crf_max=0.0 / nal_hrd=none / filler=0 / ip_ratio=1.20 / pb_ratio=1.20 / aq=3:0.65
Язык : English
Default : Да
Forced : Да

Аудио #1
Идентификатор : 2
Формат : AC-3
Формат/Информация : Audio Coding 3
Расширение режима : CM (complete main)
Параметр Endianness формата : Big
Идентификатор кодека : A_AC3
Продолжительность : 1 ч. 47 м.
Вид битрейта : Постоянный
Битрейт : 640 Кбит/сек
Каналы : 6 каналов
Расположение каналов : Front: L C R, Side: L R, LFE
Частота : 48,0 КГц
Битовая глубина : 16 бит
Метод сжатия : С потерями
Размер потока : 492 Мбайт (6%)
Заголовок : MVO
Язык : Russian
Default : Да
Forced : Да

Аудио #2
Идентификатор : 3
Формат : AC-3
Формат/Информация : Audio Coding 3
Расширение режима : CM (complete main)
Параметр Endianness формата : Big
Идентификатор кодека : A_AC3
Продолжительность : 1 ч. 47 м.
Вид битрейта : Постоянный
Битрейт : 192 Кбит/сек
Каналы : 2 канала
Расположение каналов : Front: L R
Частота : 48,0 КГц
Битовая глубина : 16 бит
Метод сжатия : С потерями
Размер потока : 148 Мбайт (2%)
Заголовок : DUB
Язык : Russian
Default : Нет
Forced : Нет

Аудио #3
Идентификатор : 4
Формат : AC-3
Формат/Информация : Audio Coding 3
Расширение режима : CM (complete main)
Параметр Endianness формата : Big
Идентификатор кодека : A_AC3
Продолжительность : 1 ч. 47 м.
Вид битрейта : Постоянный
Битрейт : 640 Кбит/сек
Каналы : 6 каналов
Расположение каналов : Front: L C R, Side: L R, LFE
Частота : 48,0 КГц
Битовая глубина : 16 бит
Метод сжатия : С потерями
Размер потока : 492 Мбайт (6%)
Заголовок : AVO
Язык : Russian
Default : Нет
Forced : Нет

Аудио #4
Идентификатор : 5
Формат : AC-3
Формат/Информация : Audio Coding 3
Расширение режима : CM (complete main)
Параметр Endianness формата : Big
Идентификатор кодека : A_AC3
Продолжительность : 1 ч. 47 м.
Вид битрейта : Постоянный
Битрейт : 640 Кбит/сек
Каналы : 6 каналов
Расположение каналов : Front: L C R, Side: L R, LFE
Частота : 48,0 КГц
Битовая глубина : 16 бит
Метод сжатия : С потерями
Размер потока : 492 Мбайт (6%)
Язык : English
Default : Нет
Forced : Нет

Текст #1
Идентификатор : 6
Формат : UTF-8
Идентификатор кодека : S_TEXT/UTF8
Идентификатор кодека/Информация : UTF-8 Plain Text
Язык : Russian
Default : Нет
Forced : Нет

Текст #2
Идентификатор : 7
Формат : UTF-8
Идентификатор кодека : S_TEXT/UTF8
Идентификатор кодека/Информация : UTF-8 Plain Text
Заголовок : Forced
Язык : English
Default : Нет
Forced : Нет

Текст #3
Идентификатор : 8
Формат : UTF-8
Идентификатор кодека : S_TEXT/UTF8
Идентификатор кодека/Информация : UTF-8 Plain Text
Язык : English
Default : Нет
Forced : Нет

Текст #4
Идентификатор : 9
Формат : UTF-8
Идентификатор кодека : S_TEXT/UTF8
Идентификатор кодека/Информация : UTF-8 Plain Text
Заголовок : SDH
Язык : English
Default : Нет
Forced : Нет

Меню
00:00:00.000 : en:Chapter 1
00:10:17.325 : en:Chapter 2
00:19:28.876 : en:Chapter 3
00:27:24.017 : en:Chapter 4
00:39:09.722 : en:Chapter 5
00:49:43.272 : en:Chapter 6
00:59:40.285 : en:Chapter 7
01:11:33.206 : en:Chapter 8
01:22:37.202 : en:Chapter 9
01:29:39.165 : en:Chapter 10
01:32:20.285 : en:Chapter 11
01:39:43.978 : en:Chapter 12
Скриншоты
 

Вложения

  • 38,2 KB Просмотры: 1
    Личеров 0
    Сидеров 0
    Файлов 1
    Объем 7,5 GB

Привет!

Мы группа людей которые решили помочь другим в решении их проблем, а так же пользователям с поиском самых свежих и качественных инфопродуктов. За 4 с небольшим месяца мы создали этот форум на который заходят ежедневно тысячи человек и посещаемость постоянно растёт. Мы создали панель лицензирования для защиты PHP скриптов от воровства и SEO панель для мониторинга наших сайтов и выбора верной стратегии их развития. Мы надеемся что то что мы создали пригодится Вам и возможно Вы поможете нам развиваться и совершенствоваться вместе с Вами.

Статистика форума

Темы
406.541
Сообщения
464.666
Пользователи
83.323
Новый пользователь
Mks16

Приложения форума для iOS и Android


У ркн там нет власти ;)
Приватные разговоры
Помощь Пользователи
    Вы не присоединились ни к одной комнате.