За последнюю неделю опубликовано 57 новых материалов.
Инструкция новичку Путеводитель по форуму Прокси для Telegram Показать подсказки , это бомба!

Скачать Найти убийцу / Urban Justice (2007) WEB-DL 1080p | P бесплатно через торрент

  • Поучаствуй (в качестве покупателя) в любых пяти совместных покупках (кроме завершённых и "Моментальных") и получи группу "Новичок" навсегда -> ссылка на раздел
  • Получай до 480 рублей за каждого приглашенного пользователя!
    представляем Вам очередное расширение партнерской программы, подробности описаны тут -> ссылка
  • 90% материалов доступно к скачиванию после простой регистрации!
    Если же ты хочешь скачивать материалы без требования оставлять отзывы то получи группу "Новичок", 10 способов повышения описаны тут -> ссылка
  • К сожалению количество битых ссылок растет и мы уже не можем их оперативно восстанавливать поэтому просим помощи у каждого нашего пользователя.
    С сегодняшнего дня, за каждую восстановленную ссылку мы заплатим Вам.
    Подробнее тут -> ссылка
  • Перенесем твои заслуги с другого ресурса!
    Мы понимаем как сложно прокачивать аккаунты на форумах, вроде раскачал аккаунт, а тут появляется ресурс в 100 раз круче но тоже с системой прокачки и снова качать аккаунт...
    Предлагаем вам перенести Ваши заслуги на другом подобном ресурсе к нам.
    Подробности описаны тут -> ссылка
  • Вы можете получать по 2.5% с каждой покупки и продажи на маркете! Подробности в теме Партнёрская программа
Если Вы не хотите скачивать, Вы всегда можетепосмотретьонлайн, просто нажмите кнопку ниже :

Открыть плеер

Torrent_Bot

Торрент-Бот
Бот форума
4 Окт 2016
92
163
20


Информация о фильме
Название: Найти убийцу
Оригинальное название: Urban Justice
Год выхода: 2007
Жанр: Боевик, триллер, криминал
Режиссер: Дон Э. ФонтЛеРой
В ролях: Стивен Сигал, Эдди Гриффин, Кармен Серано, Кори Харт, Кирк Б.Р. Уоллер, Мэри Эванс, Аль Стэггс, Джейд Йоркер, Жермен Вашингтон

О фильме:
Саймон Баллестер, бывший агент спецслужб, жаждет найти убийцу своего сына, который был бессмысленно убит в центре поглощённого нищенством города. Когда Баллестер узнаёт, что дело убийцы собираются считать закрытым, он решает принять меры. Вскоре, он переезжает в район, где был убит его сын, чтобы расследовать убийство и найти убийцу. Саймон сразу же наживает себе врагов в лице местных группировок и становится целью их жестокости.




Страна: США
Студия: Hood to Hood Productions
Продолжительность: 01:36:16
Перевод: Профессиональный многоголосый

Файл
Кодек: AVC
Качество: WEB-DL 1080p | AMZN
Видео: MPEG-4 AVC, 9271 Kбит/с, 1920x1080, 23.976 кадр/с
Аудио #1: Русский (АС3, 6 ch, 448 Кбит/с, 48.0 KHz) Профессиональный (многоголосый, закадровый)
Аудио #2: Английский (E-АС3, 6 ch, 640 Кбит/с, 48.0 KHz)
Субтитры: английские
MediaInfo
Источник: Urban.Justice.2007.1080p.AMZN.WEB-DL.DDP5.1.H.264-alfaHD
General
Unique ID : 180903176261278556204231168906276112312 (0x8818AF362010BB20BA09188582E407B8)
Complete name : Urban.Justice.2007.AMZN.WEB-DL.1080p.mkv
Format : Matroska
Format version : Version 4
File size : 6.97 GiB
Duration : 1 h 36 min
Overall bit rate : 10.4 Mb/s
Encoded date : UTC 2020-07-31 13:16:39
Writing application : mkvmerge v7.1.0 ('Good Love') 64bit built on Jul 27 2014 13:06:55
Writing library : libebml v1.3.0 + libmatroska v1.4.1

Video
ID : 1
Format : AVC
Format/Info : Advanced Video Codec
Format profile : [email protected]
Format settings : CABAC / 4 Ref Frames
Format settings, CABAC : Yes
Format settings, Reference fra : 4 frames
Codec ID : V_MPEG4/ISO/AVC
Duration : 1 h 36 min
Bit rate mode : Constant
Bit rate : 9 271 kb/s
Nominal bit rate : 10 000 kb/s
Width : 1 920 pixels
Height : 1 080 pixels
Display aspect ratio : 16:9
Frame rate mode : Constant
Frame rate : 23.976 (24000/1001) FPS
Color space : YUV
Chroma subsampling : 4:2:0
Bit depth : 8 bits
Scan type : Progressive
Bits/(Pixel*Frame) : 0.186
Stream size : 6.23 GiB (89%)
Language : English
Default : Yes
Forced : No
Color range : Limited
Color primaries : BT.709
Transfer characteristics : BT.709
Matrix coefficients : BT.709

Audio #1
ID : 2
Format : AC-3
Format/Info : Audio Coding 3
Commercial name : Dolby Digital
Codec ID : A_AC3
Duration : 1 h 36 min
Bit rate mode : Constant
Bit rate : 448 kb/s
Channel(s) : 6 channels
Channel layout : L R C LFE Ls Rs
Sampling rate : 48.0 kHz
Frame rate : 31.250 FPS (1536 SPF)
Compression mode : Lossy
Stream size : 309 MiB (4%)
Title : MVO
Language : Russian
Service kind : Complete Main
Default : Yes
Forced : No

Audio #2
ID : 3
Format : E-AC-3
Format/Info : Enhanced AC-3
Commercial name : Dolby Digital Plus
Codec ID : A_EAC3
Duration : 1 h 36 min
Bit rate mode : Constant
Bit rate : 640 kb/s
Channel(s) : 6 channels
Channel layout : L R C LFE Ls Rs
Sampling rate : 48.0 kHz
Frame rate : 31.250 FPS (1536 SPF)
Compression mode : Lossy
Stream size : 441 MiB (6%)
Language : English
Service kind : Complete Main
Default : No
Forced : No

Text #1
ID : 4
Format : UTF-8
Codec ID : S_TEXT/UTF8
Codec ID/Info : UTF-8 Plain Text
Duration : 1 h 35 min
Bit rate : 59 b/s
Count of elements : 1499
Stream size : 41.6 KiB (0%)
Language : English
Default : No
Forced : No

Text #2
ID : 5
Format : UTF-8
Codec ID : S_TEXT/UTF8
Codec ID/Info : UTF-8 Plain Text
Duration : 1 h 35 min
Bit rate : 65 b/s
Count of elements : 1770
Stream size : 45.7 KiB (0%)
Title : SDH
Language : English
Default : No
Forced : No

Menu
00:00:00.000 : en:Rival Gangs
00:09:24.000 : en:Room For Rent
00:16:24.000 : en:Snitch
00:25:40.000 : en:Condolences
00:31:46.000 : en:pillars In The Community
00:39:13.000 : en:Car Chase
00:47:28.000 : en:Drop The Ball
00:57:45.000 : en:Business Partners
01:03:29.000 : en:Birds Eye View
01:14:15.000 : en:Bad Leads
01:19:29.000 : en:Affirmative Action
01:27:49.000 : en:Gangster
Скриншоты
 

Вложения

  • 18,3 KB Просмотры: 0
    Личеров 0
    Сидеров 0
    Файлов 1
    Объем 7 GB

Привет!

Мы группа людей которые решили помочь другим в решении их проблем, а так же пользователям с поиском самых свежих и качественных инфопродуктов. За 4 с небольшим месяца мы создали этот форум на который заходят ежедневно тысячи человек и посещаемость постоянно растёт. Мы создали панель лицензирования для защиты PHP скриптов от воровства и SEO панель для мониторинга наших сайтов и выбора верной стратегии их развития. Мы надеемся что то что мы создали пригодится Вам и возможно Вы поможете нам развиваться и совершенствоваться вместе с Вами.

Статистика форума

Темы
406.698
Сообщения
465.162
Пользователи
84.787
Новый пользователь
Freckle

Приложения форума для iOS и Android


У ркн там нет власти ;)
Приватные разговоры
Помощь Пользователи
    Вы не присоединились ни к одной комнате.