За последнюю неделю опубликовано 35 новых материалов.
Инструкция новичку Путеводитель по форуму Прокси для Telegram Показать подсказки , это бомба!

Скачать Нагие и мертвые / The Naked and the Dead (1958) BDRip 1080p | L1 бесплатно через торрент

  • Поучаствуй (в качестве покупателя) в любых пяти совместных покупках (кроме завершённых и "Моментальных") и получи группу "Новичок" навсегда -> ссылка на раздел
  • Получай до 480 рублей за каждого приглашенного пользователя!
    представляем Вам очередное расширение партнерской программы, подробности описаны тут -> ссылка
  • 90% материалов доступно к скачиванию после простой регистрации!
    Если же ты хочешь скачивать материалы без требования оставлять отзывы то получи группу "Новичок", 10 способов повышения описаны тут -> ссылка
  • К сожалению количество битых ссылок растет и мы уже не можем их оперативно восстанавливать поэтому просим помощи у каждого нашего пользователя.
    С сегодняшнего дня, за каждую восстановленную ссылку мы заплатим Вам.
    Подробнее тут -> ссылка
  • Перенесем твои заслуги с другого ресурса!
    Мы понимаем как сложно прокачивать аккаунты на форумах, вроде раскачал аккаунт, а тут появляется ресурс в 100 раз круче но тоже с системой прокачки и снова качать аккаунт...
    Предлагаем вам перенести Ваши заслуги на другом подобном ресурсе к нам.
    Подробности описаны тут -> ссылка
  • Вы можете получать по 2.5% с каждой покупки и продажи на маркете! Подробности в теме Партнёрская программа
Если Вы не хотите скачивать, Вы всегда можетепосмотретьонлайн, просто нажмите кнопку ниже :

Открыть плеер

Torrent_Bot

Торрент-Бот
Бот форума
4 Окт 2016
96
155
20
Информация о фильме
Название: Нагие и мертвые
Оригинальное название: The Naked and the Dead
Год выхода: 1958
Жанр: Драма, военный
Режиссер: Рауль Уолш
В ролях: Альдо Рэй, Клифф Робертсон, Рэймонд Мэсси, Лили Ст. Кир, Барбара Николс, Уильям Кэмпбелл, Ричард Джэкел, Джеймс Бест, Джои Бишоп, Джерри Пэрис

О фильме:
По мотивам одноименного романа Нормана Мейлера. 1943 год. Дивизия армии США под командованием генерала Каммингса ведет бои с японцами за один из островов Тихого океана. Для офицеров эта война - не более, чем игра, в которой, как они уверены, им всегда будет сопутствовать успех. В это время все тяготы службы ложатся на плечи простых солдат. Среди них - разведвзвод под командованием сурового сержанта Крофта, которому поручено важное и опасное задание в тылу врага.



Страна: США
Студия: Paul Gregory Productions
Продолжительность: 02:10:57
Перевод: Любительский одноголосый

Файл
Кодек: x.264
Качество: BDRip 1080p | The.Naked.and.the.Dead.1958.1080p.BluRay.x264-NODLABS
Видео: MPEG-4 AVC, 1920x800, 12.8 Mбит/с, 23.976 кадр/с
Аудио #1: Русский ( АС3, 2ch, 256 Кбит/с, 48.0 KHz) Любительский(одноголосый, закадровый) den904
Аудио #2: Английский ( АС3, 2ch, 256 Кбит/с, 48.0 KHz)
Субтитры: русские, английские
MediaInfo
Источник: The.Naked.and.the.Dead.1958.1080p.BluRay.x264-NODLABS
General
Unique ID : 196197704590601939847313964172123967169 (0x939A4DAD87B0151A88DE0F4E59620EC1)
Complete name : The.Naked.and.the.Dead.1958.BDRip.1080p.mkv
Format : Matroska
Format version : Version 4 / Version 2
File size : 12.2 GiB
Duration : 2 h 10 min
Overall bit rate : 13.3 Mb/s
Encoded date : UTC 2018-09-13 19:02:30
Writing application : mkvmerge v7.1.0 ('Good Love') 64bit built on Jul 27 2014 13:06:55
Writing library : libebml v1.3.0 + libmatroska v1.4.1

Video
ID : 1
Format : AVC
Format/Info : Advanced Video Codec
Format profile : [email protected]
Format settings : CABAC / 5 Ref Frames
Format settings, CABAC : Yes
Format settings, ReFrames : 5 frames
Codec ID : V_MPEG4/ISO/AVC
Duration : 2 h 10 min
Bit rate : 12.8 Mb/s
Width : 1 920 pixels
Height : 800 pixels
Display aspect ratio : 2.40:1
Frame rate mode : Constant
Frame rate : 23.976 (24000/1001) FPS
Color space : YUV
Chroma subsampling : 4:2:0
Bit depth : 8 bits
Scan type : Progressive
Bits/(Pixel*Frame) : 0.348
Stream size : 11.7 GiB (96%)
Writing library : x264 core 157 r2932 303c484
Encoding settings : cabac=1 / ref=5 / deblock=1:-3:-3 / analyse=0x3:0x113 / me=umh / subme=8 / psy=1 / psy_rd=1.10:0.00 / mixed_ref=1 / me_range=32 / chroma_me=1 / trellis=2 / 8x8dct=1 / cqm=0 / deadzone=21,11 / fast_pskip=1 / chroma_qp_offset=-2 / threads=25 / lookahead_threads=4 / sliced_threads=0 / nr=0 / decimate=1 / interlaced=0 / bluray_compat=0 / constrained_intra=0 / bframes=3 / b_pyramid=2 / b_adapt=2 / b_bias=0 / direct=3 / weightb=1 / open_gop=0 / weightp=2 / keyint=240 / keyint_min=24 / scenecut=40 / intra_refresh=0 / rc_lookahead=50 / rc=2pass / mbtree=1 / bitrate=12833 / ratetol=1.0 / qcomp=0.60 / qpmin=0 / qpmax=69 / qpstep=4 / cplxblur=20.0 / qblur=0.5 / ip_ratio=1.40 / aq=3:0.75
Language : English
Default : Yes
Forced : No

Audio #1
ID : 2
Format : AC-3
Format/Info : Audio Coding 3
Commercial name : Dolby Digital
Codec ID : A_AC3
Duration : 2 h 10 min
Bit rate mode : Constant
Bit rate : 256 kb/s
Channel(s) : 2 channels
Channel layout : L R
Sampling rate : 48.0 kHz
Frame rate : 31.250 FPS (1536 SPF)
Bit depth : 16 bits
Compression mode : Lossy
Stream size : 240 MiB (2%)
Language : Russian
Service kind : Complete Main
Default : Yes
Forced : No

Audio #2
ID : 3
Format : AC-3
Format/Info : Audio Coding 3
Commercial name : Dolby Digital
Codec ID : A_AC3
Duration : 2 h 10 min
Bit rate mode : Constant
Bit rate : 256 kb/s
Channel(s) : 2 channels
Channel layout : L R
Sampling rate : 48.0 kHz
Frame rate : 31.250 FPS (1536 SPF)
Bit depth : 16 bits
Compression mode : Lossy
Stream size : 240 MiB (2%)
Language : English
Service kind : Complete Main
Default : No
Forced : No

Text #1
ID : 4
Format : UTF-8
Codec ID : S_TEXT/UTF8
Codec ID/Info : UTF-8 Plain Text
Duration : 2 h 10 min
Bit rate : 104 b/s
Count of elements : 1997
Stream size : 100.0 KiB (0%)
Language : Russian
Default : No
Forced : No

Text #2
ID : 5
Format : UTF-8
Codec ID : S_TEXT/UTF8
Codec ID/Info : UTF-8 Plain Text
Duration : 2 h 8 min
Bit rate : 63 b/s
Count of elements : 1780
Stream size : 59.9 KiB (0%)
Language : English
Default : No
Forced : No

Text #3
ID : 6
Format : UTF-8
Codec ID : S_TEXT/UTF8
Codec ID/Info : UTF-8 Plain Text
Duration : 2 h 10 min
Bit rate : 65 b/s
Count of elements : 1980
Stream size : 63.1 KiB (0%)
Title : SDH
Language : English
Default : No
Forced : No

Menu
00:00:00.000 : en:00:00:00.000
00:01:27.379 : en:00:01:27.379
00:04:43.492 : en:00:04:43.492
00:05:34.251 : en:00:05:34.251
00:10:22.080 : en:00:10:22.080
00:15:07.615 : en:00:15:07.615
00:20:12.086 : en:00:20:12.086
00:25:34.241 : en:00:25:34.241
00:30:01.258 : en:00:30:01.258
00:35:23.288 : en:00:35:23.288
00:40:47.737 : en:00:40:47.737
00:45:36.150 : en:00:45:36.150
00:47:18.669 : en:00:47:18.669
00:53:08.227 : en:00:53:08.227
01:01:46.828 : en:01:01:46.828
01:07:49.023 : en:01:07:49.023
01:13:43.002 : en:01:13:43.002
01:18:14.023 : en:01:18:14.023
01:23:50.859 : en:01:23:50.859
01:27:53.852 : en:01:27:53.852
01:31:06.211 : en:01:31:06.211
01:34:51.060 : en:01:34:51.060
01:39:05.898 : en:01:39:05.898
01:45:39.959 : en:01:45:39.959
01:50:06.433 : en:01:50:06.433
01:55:28.380 : en:01:55:28.380
02:01:08.845 : en:02:01:08.845
02:02:54.158 : en:02:02:54.158
02:07:19.215 : en:02:07:19.215
02:10:20.646 : en:02:10:20.646
Скриншоты
 

Вложения

  • 31,4 KB Просмотры: 1
    Личеров 0
    Сидеров 0
    Файлов 1
    Объем 12,2 GB

Привет!

Мы группа людей которые решили помочь другим в решении их проблем, а так же пользователям с поиском самых свежих и качественных инфопродуктов. За 4 с небольшим месяца мы создали этот форум на который заходят ежедневно тысячи человек и посещаемость постоянно растёт. Мы создали панель лицензирования для защиты PHP скриптов от воровства и SEO панель для мониторинга наших сайтов и выбора верной стратегии их развития. Мы надеемся что то что мы создали пригодится Вам и возможно Вы поможете нам развиваться и совершенствоваться вместе с Вами.

Статистика форума

Темы
406.511
Сообщения
464.514
Пользователи
82.739
Новый пользователь
zwerb

Приложения форума для iOS и Android


У ркн там нет власти ;)
Приватные разговоры
Помощь Пользователи
    Вы не присоединились ни к одной комнате.