За последнюю неделю опубликовано 33 новых материалов.
Инструкция новичку Путеводитель по форуму Прокси для Telegram Показать подсказки , это бомба!

Скачать На семи ветрах (1962) DVDRip-AVC от KORSAR бесплатно через торрент

  • Поучаствуй (в качестве покупателя) в любых пяти совместных покупках (кроме завершённых и "Моментальных") и получи группу "Новичок" навсегда -> ссылка на раздел
  • Получай до 480 рублей за каждого приглашенного пользователя!
    представляем Вам очередное расширение партнерской программы, подробности описаны тут -> ссылка
  • 90% материалов доступно к скачиванию после простой регистрации!
    Если же ты хочешь скачивать материалы без требования оставлять отзывы то получи группу "Новичок", 10 способов повышения описаны тут -> ссылка
  • К сожалению количество битых ссылок растет и мы уже не можем их оперативно восстанавливать поэтому просим помощи у каждого нашего пользователя.
    С сегодняшнего дня, за каждую восстановленную ссылку мы заплатим Вам.
    Подробнее тут -> ссылка
  • Перенесем твои заслуги с другого ресурса!
    Мы понимаем как сложно прокачивать аккаунты на форумах, вроде раскачал аккаунт, а тут появляется ресурс в 100 раз круче но тоже с системой прокачки и снова качать аккаунт...
    Предлагаем вам перенести Ваши заслуги на другом подобном ресурсе к нам.
    Подробности описаны тут -> ссылка
  • Вы можете получать по 2.5% с каждой покупки и продажи на маркете! Подробности в теме Партнёрская программа
Если Вы не хотите скачивать, Вы всегда можетепосмотретьонлайн, просто нажмите кнопку ниже :

Открыть плеер

Torrent_Bot

Торрент-Бот
Бот форума
4 Окт 2016
93
160
20
Информация о фильме
Название: На семи ветрах
Год выпуска: 1962
Жанр: Драма, военный
Режиссёр: Станислав Ростоцкий
В ролях: Лариса Лужина, Вячеслав Тихонов, Вячеслав Невинный, Михаил Трояновский, Софья Пилявская, Маргарита Струнова, Лидия Савченко, Клара Лучко, Светлана Дружинина, Людмила Чурсина, Маргарита Жарова, Владимир Заманский, Леонид Быков, Валентин Печников, Анатолий Ромашин, Анатолий Игнатьев, Бимболат (Бибо) Ватаев, Виктор Павлов, Клавдия Лепанова, Павел Винник, Виктор Маркин, Аркадий Трусов, Савелий Крамаров, Герман Полосков, Станислав Коренев, Юрий Фомичёв, Юрий Дубровин, Александра Данилова

Описание: Простая русская девушка Светлана приехала в захолустный городок к своему любимому. Но началась война, Игорь не встретил Светлану, а она решила остаться: ждать его возвращения и конца войны. Она ждала его всю войну там, куда он обязательно должен был вернуться. В его доме. В доме "на семи ветрах"... Вскоре в этом доме разместилась редакция фронтовой газеты. Светлана была душой коллектива. А когда немцы были на подходе к городу, дом превратился в госпиталь, а Светлана стала бойцом.



Выпущено: СССР
Продолжительность: 01:40:13
Перевод: Не требуется

Файл
Качество: DVDRip-AVC
Видео: MPEG-4 AVС, [email protected], 2055 kbps, 25.000 fps
Аудио 1: AC3, 5.1 ch, 384 kbps
Аудио 2: AC3, 2.0 ch, 224 kbps
Субтитры: Нет
Навигация по главам: Есть

Релиз от:

Скриншоты

MediaInfo
x264 [info]: frame I:807 Avg QP:18.22 size: 45949
x264 [info]: frame P:29052 Avg QP:19.12 size: 29964
x264 [info]: frame B:120474 Avg QP:21.71 size: 5611

======================================

Общее
Уникальный идентификатор : 227826723193527217371035268693647174717 (0xAB65D4B178C2EBCD882CA0E607142C3D)
Полное имя : На семи ветрах.1962.DVDRip-AVC.KORSAR.mkv
Формат : Matroska
Версия формата : Version 2
Размер файла : 1,90 Гбайт
Продолжительность : 1 ч. 40 м.
Общий поток : 2717 Кбит/сек
Дата кодирования : UTC 2017-04-05 01:29:25
Программа кодирования : mkvmerge v5.8.0 ('No Sleep / Pillow') built on Sep 2 2012 15:37:04
Библиотека кодирования : libebml v1.2.3 + libmatroska v1.3.0

Видео
Идентификатор : 1
Формат : AVC
Формат/Информация : Advanced Video Codec
Профиль формата : [email protected]
Параметр CABAC формата : Да
Параметр ReFrames формата : 16 кадров
Идентификатор кодека : V_MPEG4/ISO/AVC
Продолжительность : 1 ч. 40 м.
Битрейт : 2055 Кбит/сек
Ширина : 684 пикселя
Высота : 564 пикселя
Соотношение сторон : 4:3
Соотношение сторон в оригинале : 4:3
Режим частоты кадров : Постоянный
Частота кадров : 25,000 кадров/сек
Цветовое пространство : YUV
Субдискретизация насыщенности : 4:2:0
Битовая глубина : 8 бит
Тип развёртки : Прогрессивная
Бит/(Пиксели*Кадры) : 0.213
Размер потока : 1,44 Гбайт (76%)
Заголовок : На семи ветрах.1962.DVDRip-AVC.KORSAR
Библиотека кодирования : x264 core 148 r2744kMod b97ae06
Настройки программы : cabac=1 / ref=16 / deblock=1:-2:-1 / analyse=0x3:0x133 / me=umh / subme=10 / psy=1 / fade_compensate=0.00 / psy_rd=1.05:0.10 / mixed_ref=1 / me_range=32 / chroma_me=1 / trellis=2 / 8x8dct=1 / cqm=0 / deadzone=21,11 / fast_pskip=1 / chroma_qp_offset=-3 / threads=12 / lookahead_threads=3 / sliced_threads=0 / nr=0 / decimate=1 / interlaced=0 / bluray_compat=0 / constrained_intra=0 / bframes=10 / b_pyramid=2 / b_adapt=2 / b_bias=0 / direct=1 / weightb=1 / open_gop=0 / weightp=2 / keyint=250 / keyint_min=25 / scenecut=40 / intra_refresh=0 / rc=crf / mbtree=0 / crf=18.1000 / qcomp=0.63 / qpmin=0 / qpmax=39 / qpstep=4 / ip_ratio=1.15 / pb_ratio=1.30 / aq=2:0.80
Язык : English
Default : Да
Forced : Нет
Цветовой диапазон : Limited
Основные цвета : BT.601 PAL
Характеристики трансфера : BT.470 System B, BT.470 System G
Коэффициенты матрицы : BT.601

Аудио #1
Идентификатор : 2
Формат : AC-3
Формат/Информация : Audio Coding 3
Расширение режима : CM
Параметр Endianness формата : Big
Идентификатор кодека : A_AC3
Продолжительность : 1 ч. 40 м.
Вид битрейта : Постоянный
Битрейт : 384 Кбит/сек
Каналы : 6 каналов
Расположение каналов : Front: L C R, Side: L R, LFE
Частота : 48,0 КГц
Частота кадров : 31,250 кадров/сек (1536 spf)
Битовая глубина : 16 бит
Метод сжатия : С потерями
Размер потока : 275 Мбайт (14%)
Язык : Russian
Default : Да
Forced : Нет

Аудио #2
Идентификатор : 3
Формат : AC-3
Формат/Информация : Audio Coding 3
Расширение режима : CM
Параметр Endianness формата : Big
Идентификатор кодека : A_AC3
Продолжительность : 1 ч. 40 м.
Вид битрейта : Постоянный
Битрейт : 224 Кбит/сек
Каналы : 2 канала
Расположение каналов : Front: L R
Частота : 48,0 КГц
Частота кадров : 31,250 кадров/сек (1536 spf)
Битовая глубина : 16 бит
Метод сжатия : С потерями
Размер потока : 161 Мбайт (8%)
Язык : Russian
Default : Нет
Forced : Нет

Меню
00:00:00.000 : en:Chapter 1
00:02:15.120 : en:Chapter 2
00:05:04.080 : en:Chapter 3
00:10:12.600 : en:Chapter 4
00:13:51.480 : en:Chapter 5
00:19:05.640 : en:Chapter 6
00:22:52.680 : en:Chapter 7
00:25:02.760 : en:Chapter 8
00:27:48.240 : en:Chapter 9
00:30:34.800 : en:Chapter 10
00:37:32.040 : en:Chapter 11
00:42:29.280 : en:Chapter 12
00:45:14.760 : en:Chapter 13
00:49:11.640 : en:Chapter 14
00:56:30.360 : en:Chapter 15
01:06:08.160 : en:Chapter 16
01:21:08.760 : en:Chapter 17
01:27:30.360 : en:Chapter 18
01:40:08.760 : en:Chapter 19
 

Вложения

  • 20 KB Просмотры: 1
    Личеров 0
    Сидеров 0
    Файлов 1
    Объем 1,9 GB

Привет!

Мы группа людей которые решили помочь другим в решении их проблем, а так же пользователям с поиском самых свежих и качественных инфопродуктов. За 4 с небольшим месяца мы создали этот форум на который заходят ежедневно тысячи человек и посещаемость постоянно растёт. Мы создали панель лицензирования для защиты PHP скриптов от воровства и SEO панель для мониторинга наших сайтов и выбора верной стратегии их развития. Мы надеемся что то что мы создали пригодится Вам и возможно Вы поможете нам развиваться и совершенствоваться вместе с Вами.

Статистика форума

Темы
406.599
Сообщения
464.995
Пользователи
84.343
Новый пользователь
Евгений5757

Приложения форума для iOS и Android


У ркн там нет власти ;)
Приватные разговоры
Помощь Пользователи
    Вы не присоединились ни к одной комнате.