За последнюю неделю опубликовано 44 новых материалов.
Инструкция новичку Путеводитель по форуму Прокси для Telegram Показать подсказки , это бомба!

Скачать На перепутье / На ростанях (2011) DVB от AND03AND бесплатно через торрент

  • Поучаствуй (в качестве покупателя) в любых пяти совместных покупках (кроме завершённых и "Моментальных") и получи группу "Новичок" навсегда -> ссылка на раздел
  • Получай до 480 рублей за каждого приглашенного пользователя!
    представляем Вам очередное расширение партнерской программы, подробности описаны тут -> ссылка
  • 90% материалов доступно к скачиванию после простой регистрации!
    Если же ты хочешь скачивать материалы без требования оставлять отзывы то получи группу "Новичок", 10 способов повышения описаны тут -> ссылка
  • К сожалению количество битых ссылок растет и мы уже не можем их оперативно восстанавливать поэтому просим помощи у каждого нашего пользователя.
    С сегодняшнего дня, за каждую восстановленную ссылку мы заплатим Вам.
    Подробнее тут -> ссылка
  • Перенесем твои заслуги с другого ресурса!
    Мы понимаем как сложно прокачивать аккаунты на форумах, вроде раскачал аккаунт, а тут появляется ресурс в 100 раз круче но тоже с системой прокачки и снова качать аккаунт...
    Предлагаем вам перенести Ваши заслуги на другом подобном ресурсе к нам.
    Подробности описаны тут -> ссылка
  • Вы можете получать по 2.5% с каждой покупки и продажи на маркете! Подробности в теме Партнёрская программа
Если Вы не хотите скачивать, Вы всегда можетепосмотретьонлайн, просто нажмите кнопку ниже :

Открыть плеер

Torrent_Bot

Торрент-Бот
Бот форума
4 Окт 2016
90
168
20
Информация о фильме
Название: На перепутье / На ростанях
Год выхода: 2011
Жанр: комедия, мелодрама
Режиссер: Виталий Дудин
В ролях: Вероника Пляшкевич, Руслан Чернецкий, Андрей Сенькин, Алёна Сидорова, Татьяна Гаркуша, Светлана Кожемякина, Александр Суцковер, Александр Ткачёнок, Полина Стрельникова, Георгий Волчек

О фильме:
Это история о девушке Кате, которую после окончания торгового колледжа направили работать по распределению в деревню. Теперь она обязана либо возместить потраченные на ее обучение бюджетные средства, либо отработать положенный срок. Денег нет, и Катя вынуждена провести два года в непривычной для себя сельской среде.

Доп. информация:
Сценарист: Дмитрий Якутович
Оператор: Дмитрий Рудь
Композитор: Владимир Кондрусевич
Художник: Валерий Юркевич
Производство: Беларусьфильм
Премьера: 10 октября 2011 (кинопрокат в Беларуси), 22 апреля 2012 (Интер, Украина)



Запись потока *.ts с наземного цифрового телеканала "Беларусь 3", ремукс в *.mkv программой VideoReDo.

Благодарность: за помощь с недостающим материалом Bartimeyse и PavelDAS. Обоим большое спасибо!

Страна: Республика Беларусь
Студия: Беларусьфильм
Продолжительность: 01:32:26
Перевод: не требует

Файл
Кодек: AVC (H264)
Качество: DVB
Видео: AVC (H264), 720x576 (4:3), 25 fps, 2 191 Kbps
Звук: MP2, 256 kbps, 2 channels, 48 kHz

Семпл

MediaInfo
General
Unique ID : 214249774607568507690089071973660861350 (0xA12F01723EC4A1F9AC5A9F94D7E7A3A6)
Complete name : D:Новая земля 20001На перепутье (2011)На перепутье (2011).mkv
Format : Matroska
Format version : Version 4 / Version 2
File size : 1.61 GiB
Duration : 1h 32mn
Overall bit rate : 2 496 Kbps
Encoded date : UTC 2016-07-01 19:44:13
Writing application : mkvmerge v8.5.1 ('Where you lead I will follow') 32bit
Writing library : libebml v1.3.3 + libmatroska v1.4.4
DURATION : 01:32:25.848000000
NUMBER_OF_FRAMES : 231077
NUMBER_OF_BYTES : 177467136
_STATISTICS_WRITING_APP : mkvmerge v8.5.1 ('Where you lead I will follow') 32bit
_STATISTICS_WRITING_DATE_UTC : 2016-07-01 19:44:13
_STATISTICS_TAGS : BPS DURATION NUMBER_OF_FRAMES NUMBER_OF_BYTES

Video
ID : 1
Format : AVC
Format/Info : Advanced Video Codec
Format profile : [email protected]
Format settings, CABAC : Yes
Format settings, ReFrames : 4 frames
Format settings, GOP : M=4, N=24
Codec ID : V_MPEG4/ISO/AVC
Duration : 1h 32mn
Bit rate : 2 191 Kbps
Width : 720 pixels
Height : 576 pixels
Display aspect ratio : 4:3
Original display aspect ratio : 4:3
Frame rate mode : Constant
Frame rate : 25.000 fps
Standard : PAL
Color space : YUV
Chroma subsampling : 4:2:0
Bit depth : 8 bits
Scan type : MBAFF
Scan order : Top Field First
Bits/(Pixel*Frame) : 0.211
Stream size : 1.41 GiB (88%)
Default : Yes
Forced : No
Color primaries : BT.601 PAL
Transfer characteristics : BT.470 System B, BT.470 System G
Matrix coefficients : BT.601
Color range : Limited
DURATION : 01:32:25.800000000
NUMBER_OF_FRAMES : 138645
NUMBER_OF_BYTES : 1551727864
_STATISTICS_WRITING_APP : mkvmerge v8.5.1 ('Where you lead I will follow') 32bit
_STATISTICS_WRITING_DATE_UTC : 2016-07-01 19:44:13
_STATISTICS_TAGS : BPS DURATION NUMBER_OF_FRAMES NUMBER_OF_BYTES

Audio
ID : 2
Format : MPEG Audio
Format version : Version 1
Format profile : Layer 2
Codec ID : A_MPEG/L2
Codec ID/Hint : MP2
Duration : 1h 32mn
Bit rate mode : Constant
Bit rate : 256 Kbps
Channel(s) : 2 channels
Sampling rate : 48.0 KHz
Compression mode : Lossy
Delay relative to video : -200ms
Stream size : 169 MiB (10%)
Language : Russian
Default : Yes
Forced : No

Скриншот c названием фильма
Скриншоты
 

Вложения

  • 18,4 KB Просмотры: 1
    Личеров 0
    Сидеров 0
    Файлов 1
    Объем 1,6 GB

Привет!

Мы группа людей которые решили помочь другим в решении их проблем, а так же пользователям с поиском самых свежих и качественных инфопродуктов. За 4 с небольшим месяца мы создали этот форум на который заходят ежедневно тысячи человек и посещаемость постоянно растёт. Мы создали панель лицензирования для защиты PHP скриптов от воровства и SEO панель для мониторинга наших сайтов и выбора верной стратегии их развития. Мы надеемся что то что мы создали пригодится Вам и возможно Вы поможете нам развиваться и совершенствоваться вместе с Вами.

Статистика форума

Темы
410.923
Сообщения
469.337
Пользователи
88.224
Новый пользователь
serg202121

Приложения форума для iOS и Android


У ркн там нет власти ;)
Приватные разговоры
Помощь Пользователи
    Вы не присоединились ни к одной комнате.