За последнюю неделю опубликовано 60 новых материалов.
Инструкция новичку Путеводитель по форуму Прокси для Telegram Показать подсказки , это бомба!

Скачать На колёсах / Wheels (2014) BDRip 720p | A, L1 бесплатно через торрент

  • Поучаствуй (в качестве покупателя) в любых пяти совместных покупках (кроме завершённых и "Моментальных") и получи группу "Новичок" навсегда -> ссылка на раздел
  • Получай до 480 рублей за каждого приглашенного пользователя!
    представляем Вам очередное расширение партнерской программы, подробности описаны тут -> ссылка
  • 90% материалов доступно к скачиванию после простой регистрации!
    Если же ты хочешь скачивать материалы без требования оставлять отзывы то получи группу "Новичок", 10 способов повышения описаны тут -> ссылка
  • К сожалению количество битых ссылок растет и мы уже не можем их оперативно восстанавливать поэтому просим помощи у каждого нашего пользователя.
    С сегодняшнего дня, за каждую восстановленную ссылку мы заплатим Вам.
    Подробнее тут -> ссылка
  • Перенесем твои заслуги с другого ресурса!
    Мы понимаем как сложно прокачивать аккаунты на форумах, вроде раскачал аккаунт, а тут появляется ресурс в 100 раз круче но тоже с системой прокачки и снова качать аккаунт...
    Предлагаем вам перенести Ваши заслуги на другом подобном ресурсе к нам.
    Подробности описаны тут -> ссылка
  • Вы можете получать по 2.5% с каждой покупки и продажи на маркете! Подробности в теме Партнёрская программа
Если Вы не хотите скачивать, Вы всегда можетепосмотретьонлайн, просто нажмите кнопку ниже :

Открыть плеер

Torrent_Bot

Торрент-Бот
Бот форума
4 Окт 2016
92
163
20


Информация о фильме
Название: На колёсах
Оригинальное название: Wheels
Год выхода: 2014
Жанр: Драма
Режиссер: Тим Гальярдо, Донаван Томас
В ролях: Донаван Томас, Патрик Хьюм, Дайана Геттингер, Кевин МакКоркл, Уилл Дженнингс, Паркер Болек, Ирина Коста, Саманта Фаччи, Натаньяэль Грей, Дж. Кристофер

О фильме:
Двое наркоманов с суицидальными наклонностями на инвалидных колясках катаются по городу и встревают во всякие неприятности, пытаясь найти причину жить.



Страна: США
Студия: Loaded Dice Films, Controlling Chaos Films, Cunning Ape Productions
Продолжительность: 01:55:22
Перевод: Авторский, любительский одноголосый
Субтитры: Английские

Релиз от: Heisenberg | NNMClub
Качество: BDRip 720p
Видео: AVC/H.264, 1280x544, (2.35:1), 3500 Kbps, 23.976 fps
Аудио 1: AC3, 6 ch, 640 Kbps - Русский (AVO, А. Карповский) ненормативная версия
Аудио 2: AC3, 6 ch, 640 Kbps - Русский (VO, Paul Bunyan) цензурированная версия
Аудио 3: AC3, 6 ch, 640 Kbps - Русский (VO, Paul Bunyan) ненормативная версия
Аудио 4: AC3, 6 ch, 640 Kbps - Английский (оригинал)

MediaInfo:
General
Unique ID : 153201405066730691006605984440839840468 (0x73418471502ACF873981954367E422D4)
Complete name : F:Wheels.2014.BDRip.720p.NNMClub.mkv
Format : Matroska
Format version : Version 4
File size : 4.89 GiB
Duration : 1 h 55 min
Overall bit rate : 6 062 kb/s
Movie name : Wheels (2014) | NNMClub
Encoded date : UTC 2020-07-30 11:52:24
Writing application : mkvmerge v48.0.0 ('Fortress Around Your Heart') 64-bit
Writing library : libebml v1.4.0 + libmatroska v1.6.0
Cover : Yes
Attachments : Cover.jpg / x264.log

Video
ID : 1
Format : AVC
Format/Info : Advanced Video Codec
Format profile : [email protected]
Format settings : CABAC / 11 Ref Frames
Format settings, CABAC : Yes
Format settings, Reference : 11 frames
Codec ID : V_MPEG4/ISO/AVC
Duration : 1 h 55 min
Bit rate : 3 500 kb/s
Width : 1 280 pixels
Height : 544 pixels
Display aspect ratio : 2.35:1
Frame rate mode : Constant
Frame rate : 23.976 (24000/1001) FPS
Color space : YUV
Chroma subsampling : 4:2:0
Bit depth : 8 bits
Scan type : Progressive
Bits/(Pixel*Frame) : 0.210
Stream size : 2.82 GiB (58%)
Title : Wheels (2014)
Writing library : x264 core 161 r3018 db0d417
Encoding settings : cabac=1 / ref=11 / deblock=1:-3:-3 / analyse=0x3:0x133 / me=esa / subme=11 / psy=1 / psy_rd=1.00:0.00 / mixed_ref=1 / me_range=32 / chroma_me=1 / trellis=2 / 8x8dct=1 / cqm=0 / deadzone=21,11 / fast_pskip=0 / chroma_qp_offset=-2 / threads=12 / lookahead_threads=3 / sliced_threads=0 / nr=0 / decimate=0 / interlaced=0 / bluray_compat=0 / constrained_intra=0 / bframes=11 / b_pyramid=2 / b_adapt=2 / b_bias=0 / direct=3 / weightb=1 / open_gop=0 / weightp=2 / keyint=240 / keyint_min=23 / scenecut=40 / intra_refresh=0 / rc_lookahead=60 / rc=2pass / mbtree=0 / bitrate=3500 / ratetol=1.0 / qcomp=0.60 / qpmin=0 / qpmax=69 / qpstep=4 / cplxblur=20.0 / qblur=0.5 / vbv_maxrate=50000 / vbv_bufsize=62500 / nal_hrd=none / filler=0 / ip_ratio=1.30 / pb_ratio=1.25 / aq=3:0.80
Language : English
Default : Yes
Forced : No

Audio #1
ID : 2
Format : AC-3
Format/Info : Audio Coding 3
Commercial name : Dolby Digital
Codec ID : A_AC3
Duration : 1 h 55 min
Bit rate mode : Constant
Bit rate : 640 kb/s
Channel(s) : 6 channels
Channel layout : L R C LFE Ls Rs
Sampling rate : 48.0 kHz
Frame rate : 31.250 FPS (1536 SPF)
Compression mode : Lossy
Stream size : 528 MiB (11%)
Title : AVO [Антон Карповский] ненорматив
Language : Russian
Service kind : Complete Main
Default : Yes
Forced : No

Audio #2
ID : 3
Format : AC-3
Format/Info : Audio Coding 3
Commercial name : Dolby Digital
Codec ID : A_AC3
Duration : 1 h 55 min
Bit rate mode : Constant
Bit rate : 640 kb/s
Channel(s) : 6 channels
Channel layout : L R C LFE Ls Rs
Sampling rate : 48.0 kHz
Frame rate : 31.250 FPS (1536 SPF)
Compression mode : Lossy
Stream size : 528 MiB (11%)
Title : AVO [Paul Bunyan] censored / цензурированная
Language : Russian
Service kind : Complete Main
Default : No
Forced : No

Audio #3
ID : 4
Format : AC-3
Format/Info : Audio Coding 3
Commercial name : Dolby Digital
Codec ID : A_AC3
Duration : 1 h 55 min
Bit rate mode : Constant
Bit rate : 640 kb/s
Channel(s) : 6 channels
Channel layout : L R C LFE Ls Rs
Sampling rate : 48.0 kHz
Frame rate : 31.250 FPS (1536 SPF)
Compression mode : Lossy
Stream size : 528 MiB (11%)
Title : AVO [Paul Bunyan] uncensored / ненормативная
Language : Russian
Service kind : Complete Main
Default : No
Forced : No

Audio #4
ID : 5
Format : AC-3
Format/Info : Audio Coding 3
Commercial name : Dolby Digital
Codec ID : A_AC3
Duration : 1 h 55 min
Bit rate mode : Constant
Bit rate : 640 kb/s
Channel(s) : 6 channels
Channel layout : L R C LFE Ls Rs
Sampling rate : 48.0 kHz
Frame rate : 31.250 FPS (1536 SPF)
Compression mode : Lossy
Stream size : 528 MiB (11%)
Title : Original
Language : English
Service kind : Complete Main
Default : No
Forced : No

Text
ID : 6
Format : UTF-8
Codec ID : S_TEXT/UTF8
Codec ID/Info : UTF-8 Plain Text
Duration : 1 h 51 min
Bit rate : 40 b/s
Count of elements : 1165
Stream size : 33.2 KiB (0%)
Title : Full
Language : English
Default : No
Forced : No

Menu
00:00:00.000 : en:My Name is Mickey
00:09:25.815 : en:Crock of Shit
00:15:35.601 : en:Shoot Me in the Head
00:21:59.985 : en:Hookers & Blow
00:29:02.282 : en:Heroin Land
00:35:40.930 : en:Fucking Psychotic
00:41:00.500 : en:Santa's Dead
00:44:44.974 : en:Gold Fucking Cage
00:56:10.659 : en:The Choice to Die
01:02:25.450 : en:Maritza
01:10:58.754 : en:Mr. Suicide
01:17:45.411 : en:The Brick
01:28:40.941 : en:My Young Child
01:35:55.166 : en:Crippling Effect
01:42:43.240 : en:Take Me to the Ocean
01:50:20.823 : en:Cigarettes & Sunshine
x264 log:
x264 [info]: profile High, level 4.1, 4:2:0, 8-bit
x264 [info]: frame I:1116 Avg QP:11.25 size: 82902
x264 [info]: frame P:32542 Avg QP:13.75 size: 33627
x264 [info]: frame B:132308 Avg QP:14.53 size: 13915
x264 [info]: consecutive B-frames: 1.8% 2.0% 5.6% 15.2% 14.2% 37.5% 7.8% 2.7% 3.1% 2.6% 2.9% 4.6%
x264 [info]: mb I I16..4: 9.6% 76.1% 14.3%
x264 [info]: mb P I16..4: 1.2% 11.7% 1.2% P16..4: 26.3% 33.7% 15.4% 2.7% 0.1% skip: 7.8%
x264 [info]: mb B I16..4: 0.2% 1.5% 0.2% B16..8: 31.4% 27.3% 6.5% direct: 6.7% skip:26.1% L0:49.8% L1:39.3% BI:11.0%
x264 [info]: 8x8 transform intra:81.1% inter:49.4%
x264 [info]: direct mvs spatial:98.3% temporal:1.7%
x264 [info]: coded y,uvDC,uvAC intra: 85.0% 74.7% 52.6% inter: 31.0% 24.4% 9.2%
x264 [info]: i16 v,h,dc,p: 54% 7% 8% 31%
x264 [info]: i8 v,h,dc,ddl,ddr,vr,hd,vl,hu: 8% 12% 7% 9% 12% 11% 14% 11% 16%
x264 [info]: i4 v,h,dc,ddl,ddr,vr,hd,vl,hu: 9% 9% 13% 7% 14% 12% 13% 9% 13%
x264 [info]: i8c dc,h,v,p: 38% 33% 16% 13%
x264 [info]: Weighted P-Frames: Y:4.1% UV:3.0%
x264 [info]: ref P L0: 44.6% 3.2% 16.2% 9.1% 7.0% 5.7% 4.9% 3.0% 2.5% 2.1% 1.7% 0.1% 0.0%
x264 [info]: ref B L0: 62.1% 14.9% 8.0% 4.6% 3.3% 2.6% 2.1% 1.3% 0.8% 0.3%
x264 [info]: ref B L1: 92.9% 7.1%
x264 [info]: kb/s:3499.40
Доп. информация:
Перевод Антона Карповского сделан по частному заказу arizonadream
Скриншоты
 

Вложения

  • 25,9 KB Просмотры: 0
    Личеров 0
    Сидеров 0
    Файлов 1
    Объем 4,9 GB

Привет!

Мы группа людей которые решили помочь другим в решении их проблем, а так же пользователям с поиском самых свежих и качественных инфопродуктов. За 4 с небольшим месяца мы создали этот форум на который заходят ежедневно тысячи человек и посещаемость постоянно растёт. Мы создали панель лицензирования для защиты PHP скриптов от воровства и SEO панель для мониторинга наших сайтов и выбора верной стратегии их развития. Мы надеемся что то что мы создали пригодится Вам и возможно Вы поможете нам развиваться и совершенствоваться вместе с Вами.

Статистика форума

Темы
406.695
Сообщения
465.153
Пользователи
84.760
Новый пользователь
sevoyan

Приложения форума для iOS и Android


У ркн там нет власти ;)
Приватные разговоры
Помощь Пользователи
    Вы не присоединились ни к одной комнате.