За последнюю неделю опубликовано 33 новых материалов.
Инструкция новичку Путеводитель по форуму Прокси для Telegram Показать подсказки , это бомба!

Скачать На дне бездны / In Too Deep (1999) BDRip-AVC | P2 бесплатно через торрент

  • Поучаствуй (в качестве покупателя) в любых пяти совместных покупках (кроме завершённых и "Моментальных") и получи группу "Новичок" навсегда -> ссылка на раздел
  • Получай до 480 рублей за каждого приглашенного пользователя!
    представляем Вам очередное расширение партнерской программы, подробности описаны тут -> ссылка
  • 90% материалов доступно к скачиванию после простой регистрации!
    Если же ты хочешь скачивать материалы без требования оставлять отзывы то получи группу "Новичок", 10 способов повышения описаны тут -> ссылка
  • К сожалению количество битых ссылок растет и мы уже не можем их оперативно восстанавливать поэтому просим помощи у каждого нашего пользователя.
    С сегодняшнего дня, за каждую восстановленную ссылку мы заплатим Вам.
    Подробнее тут -> ссылка
  • Перенесем твои заслуги с другого ресурса!
    Мы понимаем как сложно прокачивать аккаунты на форумах, вроде раскачал аккаунт, а тут появляется ресурс в 100 раз круче но тоже с системой прокачки и снова качать аккаунт...
    Предлагаем вам перенести Ваши заслуги на другом подобном ресурсе к нам.
    Подробности описаны тут -> ссылка
  • Вы можете получать по 2.5% с каждой покупки и продажи на маркете! Подробности в теме Партнёрская программа
Если Вы не хотите скачивать, Вы всегда можетепосмотретьонлайн, просто нажмите кнопку ниже :

Открыть плеер

Torrent_Bot

Торрент-Бот
Бот форума
4 Окт 2016
93
155
20



Информация о фильме
Название: На дне бездны
Оригинальное название: In Too Deep
Год выхода: 1999
Жанр: Триллер, Драма, Криминал
Режиссер: Майкл Раймер
В ролях: Омар Эппс, ЭлЭл Кул Джей, Ниа Лонг, Стэнли Туччи, Хилл Харпер, Джейк Уэбер, Ричард Брукс, Дэвид Патрик Келли, Пэм Гриер, Вероника Уэбб

О фильме:
Детектив Джефф Коул проникает в банду гангстеров, совершающую большинство преступлений в городе. Его цель — главарь по кличке «Бог» и Джефф должен его низвергнуть. Он понимает, чтобы войти в доверие, недостаточно быть крутым, нужно стать таким же, как они! А значит, оказаться за чертой, на самом дне бездны, откуда можно уже не вернуться!



Страна: США
Студия: Dimension Films, Miramax Films, Suntaur Entertainment Company
Продолжительность: 01:37:06
Перевод: Профессиональный (двухголосый, закадровый)
Субтитры: Русские

Файл
Формат: Matroska
Качество: BDRip-AVC | [BDRemux.1080p]
Видео: 1046x452 at 23.976 fps, x264, ~2406 kbps
Аудио #1: AC3, 2 ch, ~192 kbps - | Русский | - (DVO, НТВ+)
Аудио #2: AC3, 6 ch, ~448 kbps - | Русский | - (DVO, West Video)
Формат субтитров: softsub (SRT)

***Релиз от:-=DoMiNo=-

M/I
x264 info: frame I:824 Avg QP:16.76 size: 44771
x264 info: frame P:28662 Avg QP:17.66 size: 22721
x264 info: frame B:110206 Avg QP:19.33 size: 9658
x264 info: consecutive B-frames: 1.3% 1.9% 6.2% 20.2% 17.7% 39.6% 5.9% 4.0% 1.1% 0.5% 0.4% 0.7% 0.2% 0.3%

General
Unique ID : 196578368077681539003676860189104032770 (0x93E39DD637D328243008C07B40324C02)
Complete name : На дне бездны.(1999).BDRip-AVC.[-=DoMiNo=-].mkv
Format : Matroska
Format version : Version 4
File size : 2.07 GiB
Duration : 1 h 37 min
Overall bit rate : 3 049 kb/s
Movie name : На дне бездны / In Too Deep (1999)
Encoded date : UTC 2019-06-16 21:39:06
Writing application : mkvmerge v34.0.0 ('Sight and Seen') 64-bit
Writing library : libebml v1.3.7 + libmatroska v1.5.0
Attachments : poster 1.jpg / poster 2.jpg

Video
ID : 1
Format : AVC
Format/Info : Advanced Video Codec
Format profile : High@L4.1
Format settings : CABAC / 14 Ref Frames
Format settings, CABAC : Yes
Format settings, Reference : 14 frames
Codec ID : V_MPEG4/ISO/AVC
Duration : 1 h 37 min
Bit rate : 2 406 kb/s
Width : 1 046 pixels
Height : 452 pixels
Display aspect ratio : 2.35:1
Frame rate mode : Constant
Frame rate : 23.976 (24000/1001) FPS
Color space : YUV
Chroma subsampling : 4:2:0
Bit depth : 8 bits
Scan type : Progressive
Bits/(Pixel*Frame) : 0.212
Stream size : 1.63 GiB (79%)
Title : RIP_BY_-=DoMiNo=-
Writing library : x264 core 157 r2969 d4099dd
Encoding settings : cabac=1 / ref=14 / deblock=1:-3:-3 / analyse=0x3:0x133 / me=umh / subme=11 / psy=1 / psy_rd=1.05:0.15 / mixed_ref=1 / me_range=48 / chroma_me=1 / trellis=2 / 8x8dct=1 / cqm=0 / deadzone=21,11 / fast_pskip=1 / chroma_qp_offset=-3 / threads=6 / lookahead_threads=1 / sliced_threads=0 / nr=0 / decimate=1 / interlaced=0 / bluray_compat=0 / constrained_intra=0 / bframes=13 / b_pyramid=2 / b_adapt=2 / b_bias=0 / direct=1 / weightb=1 / open_gop=0 / weightp=2 / keyint=250 / keyint_min=23 / scenecut=40 / intra_refresh=0 / rc=crf / mbtree=0 / crf=18.0 / qcomp=0.80 / qpmin=15 / qpmax=69 / qpstep=4 / ip_ratio=1.40 / pb_ratio=1.30 / aq=3:0.80
Language : English
Default : Yes
Forced : No
Color range : Limited
Color primaries : BT.709
Transfer characteristics : BT.709
Matrix coefficients : BT.709

Audio #1
ID : 2
Format : AC-3
Format/Info : Audio Coding 3
Commercial name : Dolby Digital
Codec ID : A_AC3
Duration : 1 h 37 min
Bit rate mode : Constant
Bit rate : 192 kb/s
Channel(s) : 2 channels
Channel layout : L R
Sampling rate : 48.0 kHz
Frame rate : 31.250 FPS (1536 SPF)
Bit depth : 16 bits
Compression mode : Lossy
Stream size : 133 MiB (6%)
Title : DVO - НТВ+
Language : Russian
Service kind : Complete Main
Default : Yes
Forced : No

Audio #2
ID : 3
Format : AC-3
Format/Info : Audio Coding 3
Commercial name : Dolby Digital
Codec ID : A_AC3
Duration : 1 h 37 min
Bit rate mode : Constant
Bit rate : 448 kb/s
Channel(s) : 6 channels
Channel layout : L R C LFE Ls Rs
Sampling rate : 48.0 kHz
Frame rate : 31.250 FPS (1536 SPF)
Bit depth : 16 bits
Compression mode : Lossy
Stream size : 311 MiB (15%)
Title : DVO, West Video
Language : Russian
Service kind : Complete Main
Default : No
Forced : No

Text
ID : 4
Format : UTF-8
Codec ID : S_TEXT/UTF8
Codec ID/Info : UTF-8 Plain Text
Duration : 1 h 31 min
Bit rate : 109 b/s
Count of elements : 1025
Stream size : 73.7 KiB (0%)
Title : Russian (West Video)
Language : Russian
Default : No
Forced : No

Menu
00:00:00.000 : :Opening Credits
00:06:47.403 : :First Tryout
00:13:49.033 : :A Family Affair
00:20:35.274 : :Day Of Thanks
00:25:12.800 : :Hooked Up
00:33:43.979 : :The Ordinary
00:41:06.171 : :Back In Business
00:48:16.309 : :Who The Enemy Is
00:54:23.341 : :A Part Of Something
01:01:36.858 : :Who He Is
01:09:08.894 : :That's It
01:17:00.781 : :possibilities
01:22:38.993 : :End Credits
Скриншоты
 

Вложения

  • 11,3 KB Просмотры: 1
    Личеров 0
    Сидеров 0
    Файлов 1
    Объем 2,1 GB

Привет!

Мы группа людей которые решили помочь другим в решении их проблем, а так же пользователям с поиском самых свежих и качественных инфопродуктов. За 4 с небольшим месяца мы создали этот форум на который заходят ежедневно тысячи человек и посещаемость постоянно растёт. Мы создали панель лицензирования для защиты PHP скриптов от воровства и SEO панель для мониторинга наших сайтов и выбора верной стратегии их развития. Мы надеемся что то что мы создали пригодится Вам и возможно Вы поможете нам развиваться и совершенствоваться вместе с Вами.

Статистика форума

Темы
406.542
Сообщения
464.652
Пользователи
83.257
Новый пользователь
audi786

Приложения форума для iOS и Android


У ркн там нет власти ;)
Приватные разговоры
Помощь Пользователи
    Вы не присоединились ни к одной комнате.