За последнюю неделю опубликовано 35 новых материалов.
Инструкция новичку Путеводитель по форуму Прокси для Telegram Показать подсказки , это бомба!

Скачать Mylene Farmer - Le Film (2019) UHD BDRemux 2160p | 4K | HDR бесплатно через торрент

  • Поучаствуй (в качестве покупателя) в любых пяти совместных покупках (кроме завершённых и "Моментальных") и получи группу "Новичок" навсегда -> ссылка на раздел
  • Получай до 480 рублей за каждого приглашенного пользователя!
    представляем Вам очередное расширение партнерской программы, подробности описаны тут -> ссылка
  • 90% материалов доступно к скачиванию после простой регистрации!
    Если же ты хочешь скачивать материалы без требования оставлять отзывы то получи группу "Новичок", 10 способов повышения описаны тут -> ссылка
  • К сожалению количество битых ссылок растет и мы уже не можем их оперативно восстанавливать поэтому просим помощи у каждого нашего пользователя.
    С сегодняшнего дня, за каждую восстановленную ссылку мы заплатим Вам.
    Подробнее тут -> ссылка
  • Перенесем твои заслуги с другого ресурса!
    Мы понимаем как сложно прокачивать аккаунты на форумах, вроде раскачал аккаунт, а тут появляется ресурс в 100 раз круче но тоже с системой прокачки и снова качать аккаунт...
    Предлагаем вам перенести Ваши заслуги на другом подобном ресурсе к нам.
    Подробности описаны тут -> ссылка
  • Вы можете получать по 2.5% с каждой покупки и продажи на маркете! Подробности в теме Партнёрская программа

Torrent_Bot

Торрент-Бот
Бот форума
4 Окт 2016
94
155
20



Название: Le Film
Исполнитель: Mylene Farmer
Год: 2019
Жанр: Pop, Концерт
Страна: France
Продолжительность: 02:08:01

Описание: После шестилетнего перерыва Милен Фармер триумфально вернулась на сцену, дав серию концертов в знаменитом парижском La Defense Arena — самом большом зале Европы. В программу вошли как уже любимые публикой хиты, так и песни из нового альбома.

Файл
Кодек: HEVC/X265
Качество: UHD BDRemux 2160p
Видео: 3840x2160, ~58.1 Mbps, 0.280 бит/(Пиксели*Кадры), 25.000 FPS, 10 bit
Аудио 01: DTS-HD MA, 8 ch, 10200 kbps - Французский
Аудио 02: FLAC, 2 ch, 2983 kbps, 24-bit - Французский
Аудио 03: AC3, 6 ch, 640 Kbps - Французский



Трек-лист
01. Coming From The Vortex
02. Interstellaires
03. Sans Logique
04. Rolling Stone
05. Pourvu Qu'elles Soient Douces
06. Stolen Car
07. Des Larmes
08. California
09. M'effondre
10. L'âme-stram-gram
11. Hard Hip Hop
12. Un Jour Ou L'autre
13. Ainsi Soit Je...
14. Innamoramento
15. Sans Contrefaçon
16. Histoires De Fesses
17. Sentimentale
18. Désenchantée
19. Rêver
20. Je Te Rends Ton Amour
21. Fuck Them All / C'est Dans L'air
22. L'horloge
23. Générique De Fin
Mediainfo
General
Unique ID : 93363301260430831931377139049061535501 (0x463D1E258C30094E905E740A4249CF0D)
Complete name : D:Blu-rayMylene Farmer 2019 - Le Film.UHDBDRemux.HDR.mkv
Format : Matroska
Format version : Version 4
File size : 64.4 GiB
Duration : 2 h 8 min
Overall bit rate mode : Variable
Overall bit rate : 72.0 Mb/s
Encoded date : UTC 2020-11-09 17:01:58
Writing application : mkvmerge v50.0.0 ('Awakenings') 64-bit
Writing library : libebml v1.4.0 + libmatroska v1.6.2

Video
ID : 1
Format : HEVC
Format/Info : High Efficiency Video Coding
Format profile : Main 10@L5.1@High
HDR format : SMPTE ST 2086, HDR10 compatible
Codec ID : V_MPEGH/ISO/HEVC
Duration : 2 h 8 min
Bit rate : 58.1 Mb/s
Width : 3 840 pixels
Height : 2 160 pixels
Display aspect ratio : 16:9
Frame rate mode : Constant
Frame rate : 25.000 FPS
Color space : YUV
Chroma subsampling : 4:2:0 (Type 2)
Bit depth : 10 bits
Bits/(Pixel*Frame) : 0.280
Stream size : 52.0 GiB (81%)
Title : UHD Bluray
Writing library : ATEME Titan File 3.8.5 (4.8.5.0)
Default : Yes
Forced : No
Color range : Limited
Color primaries : BT.2020
Transfer characteristics : PQ
Matrix coefficients : BT.2020 non-constant
Mastering display color pri : Display P3
Mastering display luminance : min: 0.0000 cd/m2, max: 1000 cd/m2
Maximum Content Light Level : 992 cd/m2
Maximum Frame-Average Light : 375 cd/m2

Audio #1
ID : 2
Format : DTS XLL
Format/Info : Digital Theater Systems
Commercial name : DTS-HD Master Audio
Codec ID : A_DTS
Duration : 2 h 8 min
Bit rate mode : Variable
Bit rate : 10.2 Mb/s
Channel(s) : 8 channels
Channel layout : C L R LFE Lb Rb Lss Rss
Sampling rate : 96.0 kHz
Frame rate : 187.500 FPS (512 SPF)
Bit depth : 24 bits
Compression mode : Lossless
Stream size : 9.11 GiB (14%)
Title : DTS HD-MA 7.1 @ 24 bit 96 kHz
Default : Yes
Forced : No

Audio #2
ID : 3
Format : FLAC
Format/Info : Free Lossless Audio Codec
Codec ID : A_FLAC
Duration : 2 h 8 min
Bit rate mode : Variable
Bit rate : 2 983 kb/s
Channel(s) : 2 channels
Channel layout : L R
Sampling rate : 96.0 kHz
Frame rate : 23.438 FPS (4096 SPF)
Bit depth : 24 bits
Compression mode : Lossless
Stream size : 2.67 GiB (4%)
Title : FLAC 2.0 @ 24 bit 96 kHz
Writing library : libFLAC 1.2.1 (UTC 2007-09-17)
Default : No
Forced : No

Audio #3
ID : 4
Format : AC-3
Format/Info : Audio Coding 3
Commercial name : Dolby Digital
Codec ID : A_AC3
Duration : 2 h 8 min
Bit rate mode : Constant
Bit rate : 640 kb/s
Channel(s) : 6 channels
Channel layout : L R C LFE Ls Rs
Sampling rate : 48.0 kHz
Frame rate : 31.250 FPS (1536 SPF)
Compression mode : Lossy
Stream size : 586 MiB (1%)
Title : AC3 5.1 @ 48 kHz16 bit
Service kind : Complete Main
Default : No
Forced : No

Menu
00:00:00.000 : en: 01. Coming from the Vortex
00:09:01.400 : en: 02. Interstellaires
00:12:46.720 : en: 03. Sans logique
00:16:37.320 : en: 04. Rolling Stone
00:20:23.760 : en: 05. Pourvu qu'elles soient douces
00:25:58.080 : en: 06. Stolen Car
00:29:37.040 : en: 07. Des larmes
00:34:11.000 : en: 08. California
00:40:20.600 : en: 09. M'effondre
00:43:57.160 : en: 10. L'âme-stram-gram
00:48:01.880 : en: 11. Hard Hip Hop
00:51:49.040 : en: 12. Un jour ou l'autre
00:57:18.280 : en: 13. Ainsi soit je...
01:03:53.840 : en: 14. Innamoramento
01:10:40.920 : en: 15. Sans contrefaçon
01:17:40.040 : en: 16. Histoires de fesses
01:21:05.600 : en: 17. Sentimentale
01:24:22.160 : en: 18. Désenchantée
01:36:31.320 : en: 19. Rêver
01:43:24.920 : en: 20. Je te rends ton amour
01:48:54.040 : en: 21. Fuck Them All / C'est dans l'air
01:55:42.760 : en: 22. L'horloge
02:03:22.200 : en: 23. Générique de fin
Скриншоты


 

Вложения

  • 322,7 KB Просмотры: 1
    Личеров 0
    Сидеров 0
    Файлов 1
    Объем 64,4 GB

Привет!

Мы группа людей которые решили помочь другим в решении их проблем, а так же пользователям с поиском самых свежих и качественных инфопродуктов. За 4 с небольшим месяца мы создали этот форум на который заходят ежедневно тысячи человек и посещаемость постоянно растёт. Мы создали панель лицензирования для защиты PHP скриптов от воровства и SEO панель для мониторинга наших сайтов и выбора верной стратегии их развития. Мы надеемся что то что мы создали пригодится Вам и возможно Вы поможете нам развиваться и совершенствоваться вместе с Вами.

Статистика форума

Темы
406.525
Сообщения
464.587
Пользователи
82.981
Новый пользователь
bezborodov

Приложения форума для iOS и Android


У ркн там нет власти ;)
Приватные разговоры
Помощь Пользователи
    Вы не присоединились ни к одной комнате.