За последнюю неделю опубликовано 44 новых материалов.
Инструкция новичку Путеводитель по форуму Прокси для Telegram Показать подсказки , это бомба!

Скачать Мы / Us (2019) BDRemux 1080p от селезень | iTunes бесплатно через торрент

  • Поучаствуй (в качестве покупателя) в любых пяти совместных покупках (кроме завершённых и "Моментальных") и получи группу "Новичок" навсегда -> ссылка на раздел
  • Получай до 480 рублей за каждого приглашенного пользователя!
    представляем Вам очередное расширение партнерской программы, подробности описаны тут -> ссылка
  • 90% материалов доступно к скачиванию после простой регистрации!
    Если же ты хочешь скачивать материалы без требования оставлять отзывы то получи группу "Новичок", 10 способов повышения описаны тут -> ссылка
  • К сожалению количество битых ссылок растет и мы уже не можем их оперативно восстанавливать поэтому просим помощи у каждого нашего пользователя.
    С сегодняшнего дня, за каждую восстановленную ссылку мы заплатим Вам.
    Подробнее тут -> ссылка
  • Перенесем твои заслуги с другого ресурса!
    Мы понимаем как сложно прокачивать аккаунты на форумах, вроде раскачал аккаунт, а тут появляется ресурс в 100 раз круче но тоже с системой прокачки и снова качать аккаунт...
    Предлагаем вам перенести Ваши заслуги на другом подобном ресурсе к нам.
    Подробности описаны тут -> ссылка
  • Вы можете получать по 2.5% с каждой покупки и продажи на маркете! Подробности в теме Партнёрская программа
Если Вы не хотите скачивать, Вы всегда можетепосмотретьонлайн, просто нажмите кнопку ниже :

Открыть плеер

Torrent_Bot

Торрент-Бот
Бот форума
4 Окт 2016
90
168
20


Информация о фильме
Название: Мы
Оригинальное название: Us
Год выхода: 2019
Жанр: Ужасы, триллер
Режиссер: Джордан Пил
В ролях: Лупита Нионго, Уинстон Дьюк, Элизабет Мосс, Тим Хайдекер, Шахади Райт Джозеф, Эван Алекс, Яхья Абдул-Матин II, Анна Диоп, Кали Шелдон, Ноэль Шелдон, Мэдисон Карри, Эшли МакКой, Напьера Гровс, Лон Гоуэн, Дастин Ибарра



О фильме: Будучи маленькой девочкой, Аделаида пережила травмирующее событие. В парке развлечений на побережье она отошла от родителей и забрела в зеркальный лабиринт, где встретила свою точную копию. Через много лет, уже с мужем и детьми, Аделаида приезжает в дом бабушки, который находится рядом с тем самым злосчастным парком, и с самого начала женщина чувствует себя не в своей тарелке. Муж считает, что в таком прекрасном месте нужно расслабляться, а не нервничать, но его мнение быстро меняется, когда перед домом появляются незнакомцы в красных комбинезонах с явно агрессивными намерениями.

Страна: США, Япония, Китай
Студия: Monkeypaw Productions
Продолжительность: 01:56:27
Перевод: Дублированный | iTunes

Качество: BDRemux 1080p
Видео: MPEG-4 AVC, 1920x1080, 29.3 Mbit/s, 23.976 fps
Звук:
Аудио #01: 48 kHz, AC3, 5.1, 384 Kbps | iTunes | RUS |
Аудио #02: 48 kHz, TrueHD, 7.1, 3177 Kbps | Оригинал | ENG |
Аудио #03: 48 kHz, AC3, 5.1, 448 Kbps | Оригинал | ENG |
Субтитры: Русские (full), английские



MI
General
Unique ID : 127831941425397687101893711037071512510 (0x602B895076C73666791A2A688F5253BE)
Complete name : D:Video111Us.2019.BDREMUX.1080p.seleZen.mkv
Format : Matroska
Format version : Version 4
File size : 27.1 GiB
Duration : 1 h 56 min
Overall bit rate mode : Variable
Overall bit rate : 33.3 Mb/s
Movie name : Us 2019 from селезень
Encoded date : UTC 2019-06-14 14:57:15
Writing application : mkvmerge v33.1.0 ('Primrose') 64-bit
Writing library : libebml v1.3.7 + libmatroska v1.5.0

Video
ID : 1
Format : AVC
Format/Info : Advanced Video Codec
Format profile : [email protected]
Format settings : CABAC / 4 Ref Frames
Format settings, CABAC : Yes
Format settings, Reference : 4 frames
Codec ID : V_MPEG4/ISO/AVC
Duration : 1 h 56 min
Bit rate mode : Variable
Bit rate : 29.3 Mb/s
Maximum bit rate : 32.7 Mb/s
Width : 1 920 pixels
Height : 1 080 pixels
Display aspect ratio : 16:9
Frame rate mode : Constant
Frame rate : 23.976 (24000/1001) FPS
Color space : YUV
Chroma subsampling : 4:2:0
Bit depth : 8 bits
Scan type : Progressive
Bits/(Pixel*Frame) : 0.589
Stream size : 23.8 GiB (88%)
Language : English
Default : Yes
Forced : No

Audio #1
ID : 2
Format : AC-3
Format/Info : Audio Coding 3
Commercial name : Dolby Digital
Codec ID : A_AC3
Duration : 1 h 56 min
Bit rate mode : Constant
Bit rate : 384 kb/s
Channel(s) : 6 channels
Channel layout : L R C LFE Ls Rs
Sampling rate : 48.0 kHz
Frame rate : 31.250 FPS (1536 SPF)
Bit depth : 16 bits
Compression mode : Lossy
Stream size : 320 MiB (1%)
Title : iTunes
Language : Russian
Service kind : Complete Main
Default : Yes
Forced : Yes

Audio #2
ID : 3
Format : MLP FBA 16-ch
Format/Info : Meridian Lossless Packing FBA with 16-channel presentation
Commercial name : Dolby TrueHD with Dolby Atmos
Codec ID : A_TRUEHD
Duration : 1 h 56 min
Bit rate mode : Variable
Bit rate : 3 177 kb/s
Maximum bit rate : 4 872 kb/s
Channel(s) : 8 channels
Channel layout : L R C LFE Ls Rs Lb Rb
Sampling rate : 48.0 kHz
Frame rate : 1 200.000 FPS (40 SPF)
Compression mode : Lossless
Stream size : 2.58 GiB (10%)
Title : Original
Language : English
Default : No
Forced : No
Number of dynamic objects : 11
Bed channel count : 1 channel
Bed channel configuration : LFE

Audio #3
ID : 4
Format : AC-3
Format/Info : Audio Coding 3
Commercial name : Dolby Digital
Codec ID : A_AC3
Duration : 1 h 56 min
Bit rate mode : Constant
Bit rate : 448 kb/s
Channel(s) : 6 channels
Channel layout : L R C LFE Ls Rs
Sampling rate : 48.0 kHz
Frame rate : 31.250 FPS (1536 SPF)
Bit depth : 16 bits
Compression mode : Lossy
Stream size : 373 MiB (1%)
Language : English
Service kind : Complete Main
Default : No
Forced : No

Text #1
ID : 5
Format : UTF-8
Codec ID : S_TEXT/UTF8
Codec ID/Info : UTF-8 Plain Text
Duration : 1 h 49 min
Bit rate : 53 b/s
Count of elements : 1007
Stream size : 43.0 KiB (0%)
Title : Full
Language : Russian
Default : No
Forced : No

Text #2
ID : 6
Format : UTF-8
Codec ID : S_TEXT/UTF8
Codec ID/Info : UTF-8 Plain Text
Duration : 1 h 49 min
Bit rate : 35 b/s
Count of elements : 1038
Stream size : 28.6 KiB (0%)
Title : Full
Language : English
Default : No
Forced : No

Menu
00:00:00.000 : en:Глава 01
00:06:05.156 : en:Глава 02
00:11:25.351 : en:Глава 03
00:17:12.114 : en:Глава 04
00:23:24.653 : en:Глава 05
00:29:31.520 : en:Глава 06
00:36:07.791 : en:Глава 07
00:41:07.757 : en:Глава 08
00:48:08.302 : en:Глава 09
00:55:43.257 : en:Глава 10
01:03:00.318 : en:Глава 11
01:07:49.357 : en:Глава 12
01:14:25.294 : en:Глава 13
01:20:12.016 : en:Глава 14
01:25:25.954 : en:Глава 15
01:29:44.045 : en:Глава 16
01:35:21.674 : en:Глава 17
01:40:54.548 : en:Глава 18
01:47:36.909 : en:Глава 19
01:52:14.394 : en:Глава 20
eac3to Log
eac3to v3.34
command line: eac3to D:DownloadUs.2019.1080p.BD50-CHARLiEKELLY 1) -demux -keepdialnorm
------------------------------------------------------------------------------
M2TS, 1 video track, 4 audio tracks, 5 subtitle tracks, 1:56:28, 24p /1.001
1: Chapters, 20 chapters
2: h264/AVC, 1080p24 /1.001 (16:9)
3: TrueHD/AC3 (Atmos), English, 7.1 channels, 48kHz
(embedded: AC3, 5.1 channels, 448kbps, 48kHz, dialnorm: -27dB)
4: E-AC3, Spanish, 7.1 channels, 768kbps, 48kHz, dialnorm: -28dB
(core: AC3, 5.1 channels, 448kbps, 48kHz, dialnorm: -28dB)
5: E-AC3, French, 7.1 channels, 768kbps, 48kHz, dialnorm: -27dB
(core: AC3, 5.1 channels, 448kbps, 48kHz, dialnorm: -27dB)
6: AC3 Surround, English, 2.0 channels, 192kbps, 48kHz, dialnorm: -24dB, -17ms
7: Subtitle (PGS), English
8: Subtitle (PGS), Spanish
9: Subtitle (PGS), French
10: Subtitle (PGS), Spanish
11: Subtitle (PGS), French
Creating file "00246 - Chapters.txt"...
[a06] Extracting audio track number 6...
[a03] Extracting audio track number 3...
[s10] Extracting subtitle track number 10...
[a05] Extracting audio track number 5...
[s08] Extracting subtitle track number 8...
[s07] Extracting subtitle track number 7...
[s11] Extracting subtitle track number 11...
[v02] Extracting video track number 2...
[a06] Applying (E-)AC3 delay...
[a04] Extracting audio track number 4...
[s09] Extracting subtitle track number 9...
[a06] A remaining delay of +15ms could not be fixed.
[v02] Creating file "00246 - 2 - h264, 1080p24.h264"...
[a03] Creating file "00246 - 3 - TrueHD+AC3 (Atmos), English, 7.1 channels, 48kHz.thd+ac3"...
[a04] Creating file "00246 - 4 - E-AC3, Spanish, 7.1 channels, 768kbps, 48kHz.eac3"...
[a05] Creating file "00246 - 5 - E-AC3, French, 7.1 channels, 768kbps, 48kHz.eac3"...
[a06] Creating file "00246 - 6 - AC3 Surround, English, 2.0 channels, 192kbps, 48kHz.ac3"...
[s07] Creating file "00246 - 7 - Subtitle (PGS), English.sup"...
[s08] Creating file "00246 - 8 - Subtitle (PGS), Spanish.sup"...
[s09] Creating file "00246 - 9 - Subtitle (PGS), French.sup"...
[s10] Creating file "00246 - 10 - Subtitle (PGS), Spanish.sup"...
[s11] Creating file "00246 - 11 - Subtitle (PGS), French.sup"...
Video track 2 contains 167536 frames.
Subtitle track 7 contains 1375 captions.
Subtitle track 8 contains 1050 captions.
Subtitle track 9 contains 904 captions.
Subtitle track 10 contains 12 captions.
Subtitle track 11 contains 14 captions.
eac3to processing took 2 minutes, 56 seconds.
Done.

Релиз:

 

Вложения

  • 34,9 KB Просмотры: 1
    Личеров 0
    Сидеров 0
    Файлов 1
    Объем 27,1 GB

Привет!

Мы группа людей которые решили помочь другим в решении их проблем, а так же пользователям с поиском самых свежих и качественных инфопродуктов. За 4 с небольшим месяца мы создали этот форум на который заходят ежедневно тысячи человек и посещаемость постоянно растёт. Мы создали панель лицензирования для защиты PHP скриптов от воровства и SEO панель для мониторинга наших сайтов и выбора верной стратегии их развития. Мы надеемся что то что мы создали пригодится Вам и возможно Вы поможете нам развиваться и совершенствоваться вместе с Вами.

Статистика форума

Темы
410.923
Сообщения
469.329
Пользователи
88.233
Новый пользователь
Saydo

Приложения форума для iOS и Android


У ркн там нет власти ;)
Приватные разговоры
Помощь Пользователи
    Вы не присоединились ни к одной комнате.