За последнюю неделю опубликовано 57 новых материалов.
Инструкция новичку Путеводитель по форуму Прокси для Telegram Показать подсказки , это бомба!

Скачать Мы - одна команда / We Are Marshall (2006) ВDRip 720p | P бесплатно через торрент

  • Поучаствуй (в качестве покупателя) в любых пяти совместных покупках (кроме завершённых и "Моментальных") и получи группу "Новичок" навсегда -> ссылка на раздел
  • Получай до 480 рублей за каждого приглашенного пользователя!
    представляем Вам очередное расширение партнерской программы, подробности описаны тут -> ссылка
  • 90% материалов доступно к скачиванию после простой регистрации!
    Если же ты хочешь скачивать материалы без требования оставлять отзывы то получи группу "Новичок", 10 способов повышения описаны тут -> ссылка
  • К сожалению количество битых ссылок растет и мы уже не можем их оперативно восстанавливать поэтому просим помощи у каждого нашего пользователя.
    С сегодняшнего дня, за каждую восстановленную ссылку мы заплатим Вам.
    Подробнее тут -> ссылка
  • Перенесем твои заслуги с другого ресурса!
    Мы понимаем как сложно прокачивать аккаунты на форумах, вроде раскачал аккаунт, а тут появляется ресурс в 100 раз круче но тоже с системой прокачки и снова качать аккаунт...
    Предлагаем вам перенести Ваши заслуги на другом подобном ресурсе к нам.
    Подробности описаны тут -> ссылка
  • Вы можете получать по 2.5% с каждой покупки и продажи на маркете! Подробности в теме Партнёрская программа
Если Вы не хотите скачивать, Вы всегда можетепосмотретьонлайн, просто нажмите кнопку ниже :

Открыть плеер

Torrent_Bot

Торрент-Бот
Бот форума
4 Окт 2016
92
163
20



Оригинальное название: We Are Marshall
Год выхода: 2006
Жанр: Драма, Спорт
Режиссер: МакДжи
В ролях: Мэттью МакКонахи, Мэттью Фокс, Энтони Маки, Дэвид Стрэтэйрн, Йен МакШейн, Кейт Мара, Дженьюэри Джонс, Кимберли Уильямс, Арлен Эскарпета, Роберт Патрик, Брайан Джерати, Томми Крессвелл, Christian Kanupke, Нина Джонс, Кевин Аткинс, Марк Паттон, Хантли Риттер, Бретт Райс, Dalton Polston, Эндрю Уилсон Уильямс, Ellie Zellers

О фильме: В роковую ночь 1970года университетская команда по американскому футболу из небольшого городка Хантингтон, расположенного в Западной Вирджинии, разбилась в авиакатастрофе. Погибли все 75 человек — игроки и тренеры… Пережить эту страшную трагедию и получить надежду на будущее хантингтонцам удается благодаря дерзости и настойчивости молодого тренера Джека Ленджиела, который формирует новую команду…




Страна: CША
Продолжительность: 02:11:33
Перевод: Профессиональный (многоголосый, закадровый)


Информация о файле:
Качество: BDRip
Формат: MKV
Видео кодек: H.264
Аудио кодек: AC3
Видео: 1280X534 (OAR), x264, x264, 2pass - L4.1, 5625 Kbps
Аудио 1: Русский: 48 kHz, AC3, 3/2 (L,C,R,l,r) + LFE ch, 448 kbps
Аудио 2: English: 48 kHz, DTS, 3/2 (L,C,R,l,r) + LFE ch,~1536kbps
Субтитры: Bra,Cro,Cze,Dan,Eng,Fin,Fre,Hun,Por,Slo,Spa,Swe,Tur.ass

MediaInfo
Общее
Уникальный идентификатор : 205310703304786388114767734262147102394 (0x9A7567342B5220BFAFB9B441F034B6BA)
Полное имя : W:12345We.Are.Marshall.2006.720p.BluRay.DTS.x264.Rus.Eng.mkv
Формат : Matroska
Версия формата : Version 1
Размер файла : 6,97 Гбайт
Продолжительность : 2 ч. 11 м.
Общий поток : 7589 Кбит/сек
Дата кодирования : UTC 2008-11-29 16:13:12
Программа кодирования : mkvmerge v2.0.2 ('You're My Flame') built on Feb 22 2007 00:05:35
Библиотека кодирования : libebml v0.7.7 + libmatroska v0.8.1
Attachments : CronosPro-Bold.ttf / CronosPro-Semibold.ttf / CronosPro-SemiboldIt.ttf

Видео
Идентификатор : 1
Формат : AVC
Формат/Информация : Advanced Video Codec
Профиль формата : [email protected]
Параметр CABAC формата : Да
Параметр ReFrames формата : 10 кадров
Идентификатор кодека : V_MPEG4/ISO/AVC
Продолжительность : 2 ч. 11 м.
Битрейт : 5625 Кбит/сек
Ширина : 1280 пикселей
Высота : 534 пикселя
Соотношение сторон : 2,40:1
Режим частоты кадров : Постоянный
Частота кадров : 23,976 кадра/сек
Цветовое пространство : YUV
Субдискретизация насыщенности : 4:2:0
Битовая глубина : 8 бит
Тип развёртки : Прогрессивная
Бит/(Пиксели*Кадры) : 0.343
Размер потока : 5,04 Гбайт (72%)
Заголовок : ViDEO
Библиотека кодирования : x264 core 59 r808M ff5059a
Настройки программы : cabac=1 / ref=10 / deblock=1:-3:-3 / analyse=0x3:0x133 / me=umh / subme=7 / me-prepass=1 / brdo=1 / mixed_ref=1 / me_range=16 / chroma_me=1 / trellis=0 / 8x8dct=1 / cqm=2 / deadzone=6,4 / chroma_qp_offset=0 / threads=6 / nr=0 / decimate=1 / mbaff=0 / bframes=3 / b_pyramid=1 / b_adapt=1 / b_bias=0 / direct=1 / wpredb=1 / bime=1 / keyint=250 / keyint_min=25 / scenecut=40(pre) / rc=2pass / bitrate=5625 / ratetol=1.0 / rceq='blurCplx^(1-qComp)' / qcomp=1.00 / qpmin=10 / qpmax=51 / qpstep=4 / cplxblur=20.0 / qblur=0.5 / ip_ratio=1.40 / pb_ratio=1.30 / aq=2:1.00
Язык : English
Default : Да
Forced : Нет

Аудио #1
Идентификатор : 2
Формат : AC-3
Формат/Информация : Audio Coding 3
Параметр Endianness формата : Big
Идентификатор кодека : A_AC3
Продолжительность : 2 ч. 11 м.
Вид битрейта : Постоянный
Битрейт : 448 Кбит/сек
Каналы : 6 каналов
Расположение каналов : Front: L C R, Side: L R, LFE
Частота : 48,0 КГц
Частота кадров : 31,250 кадров/сек (1536 spf)
Битовая глубина : 16 бит
Метод сжатия : С потерями
Размер потока : 422 Мбайт (6%)
Заголовок : AC3 5.1 448 Kbps
Язык : Russian
ServiceKind/String : Complete Main
Default : Да
Forced : Нет

Аудио #2
Идентификатор : 3
Формат : DTS
Формат/Информация : Digital Theater Systems
Режим : 16
Параметр Endianness формата : Big
Идентификатор кодека : A_DTS
Продолжительность : 2 ч. 11 м.
Вид битрейта : Постоянный
Битрейт : 1510 Кбит/сек
Каналы : 6 каналов
Расположение каналов : Front: L C R, Side: L R, LFE
Частота : 48,0 КГц
Частота кадров : 93,750 кадра/сек (512 spf)
Битовая глубина : 24 бит
Метод сжатия : С потерями
Размер потока : 1,39 Гбайт (20%)
Заголовок : DTS 5.1 @ 1.5 Mbps
Язык : English
Default : Нет
Forced : Нет

Текст #1
Идентификатор : 4
Формат : ASS
Идентификатор кодека : S_TEXT/ASS
Идентификатор кодека/Информация : Advanced Sub Station Alpha
Метод сжатия : Без потерь
Язык : English
Default : Да
Forced : Нет

Текст #2
Идентификатор : 5
Формат : ASS
Идентификатор кодека : S_TEXT/ASS
Идентификатор кодека/Информация : Advanced Sub Station Alpha
Метод сжатия : Без потерь
Заголовок : Brazilian
Язык : Portuguese
Default : Нет
Forced : Нет

Текст #3
Идентификатор : 6
Формат : ASS
Идентификатор кодека : S_TEXT/ASS
Идентификатор кодека/Информация : Advanced Sub Station Alpha
Метод сжатия : Без потерь
Язык : scr
Default : Нет
Forced : Нет

Текст #4
Идентификатор : 7
Формат : ASS
Идентификатор кодека : S_TEXT/ASS
Идентификатор кодека/Информация : Advanced Sub Station Alpha
Метод сжатия : Без потерь
Язык : Czech
Default : Нет
Forced : Нет

Текст #5
Идентификатор : 8
Формат : ASS
Идентификатор кодека : S_TEXT/ASS
Идентификатор кодека/Информация : Advanced Sub Station Alpha
Метод сжатия : Без потерь
Язык : Danish
Default : Нет
Forced : Нет

Текст #6
Идентификатор : 9
Формат : ASS
Идентификатор кодека : S_TEXT/ASS
Идентификатор кодека/Информация : Advanced Sub Station Alpha
Метод сжатия : Без потерь
Язык : Finnish
Default : Нет
Forced : Нет

Текст #7
Идентификатор : 10
Формат : ASS
Идентификатор кодека : S_TEXT/ASS
Идентификатор кодека/Информация : Advanced Sub Station Alpha
Метод сжатия : Без потерь
Язык : French
Default : Нет
Forced : Нет

Текст #8
Идентификатор : 11
Формат : ASS
Идентификатор кодека : S_TEXT/ASS
Идентификатор кодека/Информация : Advanced Sub Station Alpha
Метод сжатия : Без потерь
Язык : Hungarian
Default : Нет
Forced : Нет

Текст #9
Идентификатор : 12
Формат : ASS
Идентификатор кодека : S_TEXT/ASS
Идентификатор кодека/Информация : Advanced Sub Station Alpha
Метод сжатия : Без потерь
Язык : Portuguese
Default : Нет
Forced : Нет

Текст #10
Идентификатор : 13
Формат : ASS
Идентификатор кодека : S_TEXT/ASS
Идентификатор кодека/Информация : Advanced Sub Station Alpha
Метод сжатия : Без потерь
Язык : Slovenian
Default : Нет
Forced : Нет

Текст #11
Идентификатор : 14
Формат : ASS
Идентификатор кодека : S_TEXT/ASS
Идентификатор кодека/Информация : Advanced Sub Station Alpha
Метод сжатия : Без потерь
Язык : Spanish
Default : Нет
Forced : Нет

Текст #12
Идентификатор : 15
Формат : ASS
Идентификатор кодека : S_TEXT/ASS
Идентификатор кодека/Информация : Advanced Sub Station Alpha
Метод сжатия : Без потерь
Язык : Swedish
Default : Нет
Forced : Нет

Текст #13
Идентификатор : 16
Формат : ASS
Идентификатор кодека : S_TEXT/ASS
Идентификатор кодека/Информация : Advanced Sub Station Alpha
Метод сжатия : Без потерь
Язык : Turkish
Default : Нет
Forced : Нет

Скриншоты:

Релиз от
 

Вложения

  • 35,8 KB Просмотры: 0
    Личеров 0
    Сидеров 0
    Файлов 1
    Объем 7 GB

Привет!

Мы группа людей которые решили помочь другим в решении их проблем, а так же пользователям с поиском самых свежих и качественных инфопродуктов. За 4 с небольшим месяца мы создали этот форум на который заходят ежедневно тысячи человек и посещаемость постоянно растёт. Мы создали панель лицензирования для защиты PHP скриптов от воровства и SEO панель для мониторинга наших сайтов и выбора верной стратегии их развития. Мы надеемся что то что мы создали пригодится Вам и возможно Вы поможете нам развиваться и совершенствоваться вместе с Вами.

Статистика форума

Темы
406.698
Сообщения
465.162
Пользователи
84.793
Новый пользователь
vt7x2fyxlzwd

Приложения форума для iOS и Android


У ркн там нет власти ;)
Приватные разговоры
Помощь Пользователи
    Вы не присоединились ни к одной комнате.