За последнюю неделю опубликовано 49 новых материалов.
Инструкция новичку Путеводитель по форуму Прокси для Telegram Показать подсказки , это бомба!

Скачать Мы не состаримся вместе / Nous ne vieillirons pas ensemble (1972) BDRip 1080p от msltel | A бесплатно через торрент

  • Поучаствуй (в качестве покупателя) в любых пяти совместных покупках (кроме завершённых и "Моментальных") и получи группу "Новичок" навсегда -> ссылка на раздел
  • Получай до 480 рублей за каждого приглашенного пользователя!
    представляем Вам очередное расширение партнерской программы, подробности описаны тут -> ссылка
  • 90% материалов доступно к скачиванию после простой регистрации!
    Если же ты хочешь скачивать материалы без требования оставлять отзывы то получи группу "Новичок", 10 способов повышения описаны тут -> ссылка
  • К сожалению количество битых ссылок растет и мы уже не можем их оперативно восстанавливать поэтому просим помощи у каждого нашего пользователя.
    С сегодняшнего дня, за каждую восстановленную ссылку мы заплатим Вам.
    Подробнее тут -> ссылка
  • Перенесем твои заслуги с другого ресурса!
    Мы понимаем как сложно прокачивать аккаунты на форумах, вроде раскачал аккаунт, а тут появляется ресурс в 100 раз круче но тоже с системой прокачки и снова качать аккаунт...
    Предлагаем вам перенести Ваши заслуги на другом подобном ресурсе к нам.
    Подробности описаны тут -> ссылка
  • Вы можете получать по 2.5% с каждой покупки и продажи на маркете! Подробности в теме Партнёрская программа
Если Вы не хотите скачивать, Вы всегда можетепосмотретьонлайн, просто нажмите кнопку ниже :

Открыть плеер

Torrent_Bot

Торрент-Бот
Бот форума
4 Окт 2016
93
160
20



Название: Мы не состаримся вместе
Оригинальное название: Nous ne vieillirons pas ensemble
Год выпуска: 1972
Страна: Франция, Италия
Жанр: драма
Продолжительность: 01:46:13
Перевод: авторский
Режиссер: Морис Пиала
В ролях: Марлен Жобер, Жан Янн, Кристина Фабрега, Патрисия Пьеранжели, Жак Галлан, Морис Риш, Гарри-Макс, Мюз Дальбре, Маша Мериль

О фильме: Уже шесть лет Жан и Катрин — любовники. Жан не хочет разводиться и живёт с женой. Катрин живёт у своих родителей. Они видятся в отелях, машинах, во время отпусков и уикэндов. Они любят друг друга, ссорятся, затем мирятся. Но чувства постепенно угасают, а Жан становится все агрессивнее...



Качество: BDRip 1080p
Формат: MKV
Видео: MPEG-4 AVC, 17.4 Mбит/с, 1792х1080, 24 кадр/с
Аудио 1: русский, AC3, 224 kbps, 2 ch, 48 kHz [авторский, Егор Строев]
Аудио 2: французский, DTS, 768 kbps, 1 ch, 48 kHz [оригинал]
Субтитры 1: русские
Субтитры 2: французские
Субтитры 3: английские
Главы/чаптеры

MediaInfo
Общее
Уникальный идентификатор : 187739737775774188526563533822895320642 (0x8D3D5BB7CDD5AEC59420D23F7F8FEE42)
Полное имя : D:VideoМы не состаримся вместе.1972.BDRip 1080p msltel.mkv
Формат : Matroska
Версия формата : Version 4
Размер файла : 13,6 Гбайт
Продолжительность : 1 ч. 46 м.
Общий поток : 18,4 Мбит/сек
Название фильма : Rip msltel
Дата кодирования : UTC 2020-06-28 13:28:11
Программа кодирования : mkvmerge v8.2.0 ('World of Adventure') 64bit
Библиотека кодирования : libebml v1.3.1 + libmatroska v1.4.2

Видео
Идентификатор : 1
Формат : AVC
Формат/Информация : Advanced Video Codec
Профиль формата : [email protected]
Настройки формата : CABAC / 4 Ref Frames
Параметр CABAC формата : Да
Параметр RefFrames формата : 4 кадра
Идентификатор кодека : V_MPEG4/ISO/AVC
Продолжительность : 1 ч. 46 м.
Битрейт : 17,4 Мбит/сек
Ширина : 1 792 пикселя
Высота : 1 080 пикселей
Соотношение сторон : 5:3
Режим частоты кадров : Постоянный
Частота кадров : 24,000 кадра/сек
Цветовое пространство : YUV
Субдискретизация насыщенности : 4:2:0
Битовая глубина : 8 бит
Тип развёртки : Прогрессивная
Бит/(Пиксели*Кадры) : 0.374
Размер потока : 12,9 Гбайт (95%)
Библиотека кодирования : x264 core 159 r2991 1771b55
Настройки программы : cabac=1 / ref=4 / deblock=1:-2:-2 / analyse=0x3:0x113 / me=umh / subme=11 / psy=1 / psy_rd=1.00:0.15 / mixed_ref=1 / me_range=32 / chroma_me=1 / trellis=2 / 8x8dct=1 / cqm=0 / deadzone=21,11 / fast_pskip=0 / chroma_qp_offset=-3 / threads=6 / lookahead_threads=1 / sliced_threads=0 / nr=0 / decimate=1 / interlaced=0 / bluray_compat=0 / constrained_intra=0 / bframes=8 / b_pyramid=2 / b_adapt=2 / b_bias=0 / direct=1 / weightb=1 / open_gop=0 / weightp=2 / keyint=230 / keyint_min=23 / scenecut=40 / intra_refresh=0 / rc_lookahead=40 / rc=crf / mbtree=1 / crf=18.3 / qcomp=0.60 / qpmin=0 / qpmax=69 / qpstep=4 / vbv_maxrate=50000 / vbv_bufsize=62500 / crf_max=0.0 / nal_hrd=none / filler=0 / ip_ratio=1.40 / aq=1:1.00
Язык : French
Default : Да
Forced : Нет

Аудио #1
Идентификатор : 2
Формат : AC-3
Формат/Информация : Audio Coding 3
Коммерческое название : Dolby Digital
Идентификатор кодека : A_AC3
Продолжительность : 1 ч. 46 м.
Вид битрейта : Постоянный
Битрейт : 224 Кбит/сек
Каналы : 2 канала
Channel layout : L R
Частота : 48,0 КГц
Частота кадров : 31,250 кадров/сек (1536 SPF)
Метод сжатия : С потерями
Размер потока : 170 Мбайт (1%)
Заголовок : Егор Строев
Язык : Russian
Service kind : Complete Main
Default : Да
Forced : Нет

Аудио #2
Идентификатор : 3
Формат : DTS
Формат/Информация : Digital Theater Systems
Идентификатор кодека : A_DTS
Продолжительность : 1 ч. 46 м.
Вид битрейта : Постоянный
Битрейт : 768 Кбит/сек
Каналы : 1 канал
Channel layout : C
Частота : 48,0 КГц
Частота кадров : 93,750 кадра/сек (512 SPF)
Битовая глубина : 16 бит
Метод сжатия : С потерями
Размер потока : 583 Мбайт (4%)
Заголовок : оригинал
Язык : French
Default : Нет
Forced : Нет

Текст #1
Идентификатор : 4
Формат : UTF-8
Идентификатор кодека : S_TEXT/UTF8
Идентификатор кодека/Информация : UTF-8 Plain Text
Продолжительность : 1 ч. 45 м.
Битрейт : 92 бит/сек
Count of elements : 1088
Размер потока : 71,4 Кбайт (0%)
Заголовок : русские
Язык : Russian
Default : Нет
Forced : Нет

Текст #2
Идентификатор : 5
Формат : UTF-8
Идентификатор кодека : S_TEXT/UTF8
Идентификатор кодека/Информация : UTF-8 Plain Text
Продолжительность : 1 ч. 46 м.
Битрейт : 54 бит/сек
Count of elements : 1217
Размер потока : 42,2 Кбайт (0%)
Заголовок : французские
Язык : French
Default : Нет
Forced : Нет

Текст #3
Идентификатор : 6
Формат : UTF-8
Идентификатор кодека : S_TEXT/UTF8
Идентификатор кодека/Информация : UTF-8 Plain Text
Продолжительность : 1 ч. 44 м.
Битрейт : 52 бит/сек
Count of elements : 1041
Размер потока : 39,7 Кбайт (0%)
Заголовок : английские
Язык : English
Default : Нет
Forced : Нет

Меню
00:00:00.000 : en:MAIN TITLES
00:00:40.291 : en:HIS PLACE
00:03:57.125 : en:LA CAMARGUE
00:10:18.333 : en:THE BEACH
00:14:08.625 : en:"TELL ME ABOUT RUSSIA"
00:18:06.332 : en:MEDIOCRITY
00:22:24.166 : en:CATHERINE AWAY ON HOLIDAY
00:31:50.125 : en:REJOINING CATHERINE
00:39:59.499 : en:RE-REJOINING CATHERINE
00:42:35.958 : en:WEEKEND
00:51:45.875 : en:OFF TO HENRI'S
00:55:30.042 : en:"IT'S OVER"
00:59:50.080 : en:LES FLEURS DU MAL
01:02:22.499 : en:THE COUNTRYSIDE
01:11:02.416 : en:"WHAT IS THIS LETTER?"
01:17:28.457 : en:"SHE'LL COME BACK"
01:24:17.582 : en:FINDING OUT FOR HIMSELF
01:27:19.332 : en:ABOUT JEAN-FRANÇOIS
01:30:15.625 : en:THE ONLY PLACE YOU DON'T SEE MEN CRY
01:34:01.291 : en:MEETING
01:44:20.375 : en:AND TITLES
 

Вложения

  • 69 KB Просмотры: 0
    Личеров 0
    Сидеров 0
    Файлов 1
    Объем 13,6 GB

Привет!

Мы группа людей которые решили помочь другим в решении их проблем, а так же пользователям с поиском самых свежих и качественных инфопродуктов. За 4 с небольшим месяца мы создали этот форум на который заходят ежедневно тысячи человек и посещаемость постоянно растёт. Мы создали панель лицензирования для защиты PHP скриптов от воровства и SEO панель для мониторинга наших сайтов и выбора верной стратегии их развития. Мы надеемся что то что мы создали пригодится Вам и возможно Вы поможете нам развиваться и совершенствоваться вместе с Вами.

Статистика форума

Темы
406.640
Сообщения
465.116
Пользователи
84.573
Новый пользователь
sobolsm

Приложения форума для iOS и Android


У ркн там нет власти ;)
Приватные разговоры
Помощь Пользователи
    Вы не присоединились ни к одной комнате.