За последнюю неделю опубликовано 35 новых материалов.
Инструкция новичку Путеводитель по форуму Прокси для Telegram Показать подсказки , это бомба!

Скачать Музыкальные девчонки / Ongaku Shoujo [01-07 из 12] (2018) WEBRip 720p | Persona99 бесплатно через торрент

  • Поучаствуй (в качестве покупателя) в любых пяти совместных покупках (кроме завершённых и "Моментальных") и получи группу "Новичок" навсегда -> ссылка на раздел
  • Получай до 480 рублей за каждого приглашенного пользователя!
    представляем Вам очередное расширение партнерской программы, подробности описаны тут -> ссылка
  • 90% материалов доступно к скачиванию после простой регистрации!
    Если же ты хочешь скачивать материалы без требования оставлять отзывы то получи группу "Новичок", 10 способов повышения описаны тут -> ссылка
  • К сожалению количество битых ссылок растет и мы уже не можем их оперативно восстанавливать поэтому просим помощи у каждого нашего пользователя.
    С сегодняшнего дня, за каждую восстановленную ссылку мы заплатим Вам.
    Подробнее тут -> ссылка
  • Перенесем твои заслуги с другого ресурса!
    Мы понимаем как сложно прокачивать аккаунты на форумах, вроде раскачал аккаунт, а тут появляется ресурс в 100 раз круче но тоже с системой прокачки и снова качать аккаунт...
    Предлагаем вам перенести Ваши заслуги на другом подобном ресурсе к нам.
    Подробности описаны тут -> ссылка
  • Вы можете получать по 2.5% с каждой покупки и продажи на маркете! Подробности в теме Партнёрская программа

Torrent_Bot

Торрент-Бот
Бот форума
4 Окт 2016
93
155
20
Информация о фильме

Название : Музыкальные девчонки
Оригинальное название : Ongaku Shoujo / Music Girls / 音楽少女
Год выхода : 2018
Тип: TV
Жанр :Повседневность, музыкальный
Режиссер : Нисимото Юкио


Описание : Музыкальная индустрия манит подростков яркими огнями и обещаниями о красивой жизни. Но столкнувшись с реальностью, многие понимают, что всё на самом деле не так просто, как казалось на первый взгляд. Для того, чтобы слава улыбнулась и тебе, нужно обладать талантами, трудиться не покладая рук и обладать недюжинной удачей. На вершину попадают лишь единицы, а большинство так и остаётся непризнанными артистами в тени более успешных коллег.
О такой идол-группе и пойдёт речь в этом аниме. Группа "Музыкальные девчонки” принадлежит звукозаписывающему лейблу "Пайн Рекордс” и состоит из 11 девушек: Хару, Эри, Сарасы, Кири, Уори, Сасамэ, Мику, Хиё, Шупе, Котоко и Роро. Но даже при таком количестве таланта и красоты их группа ничем не может зацепить зрителя и прославиться. Девчонки постоянно работают в убыток, и для своего лейбла они стали настоящей головной болью. Однажды продюсер решает, что группе нужно новое лицо, которое смогло бы принести им популярность. Так начались многочисленные прослушивания на роль 12-й участницы, и однажды "Музыкальные девчонки” встречают главную героиню нашей истории - Ханако Ямадаки.


world-art | MyAnimeList | Офиц. Сайт


Страна : Япония
Производство : Studio DEEN
Продолжительность : 12 эпизодов по ~00:24:00
Перевод: Любительский (одноголосый, закадровый)

Перевод:

Русские субтитры:
Переводчик: Crunchyroll

Озвучка:Get Smart Group
- одноголосая (жен.): Persona99
По переводу: z2h
Тех. работы: Дмитрий Леманн




Автор рипа: HorribleSubs


Файл
Качество : WEBRip
Тип релиза: Без хардсаба
Формат видео: MKV
Наличие линковки: Нет

Видео: AVC, 1280x720 (16:9), 2073 kbps, 23.976 fps, 8bit
Аудио 1: Русский, AC3, 192 Кбит/с, 48.0 kHz, 2 ch (в составе контейнера)
Аудио 2: Японский, AС3, 192 Кбит/с, 48.0 kHz, 2 ch (в составе контейнера)
Субтитры 1 (ASS): Русские (в составе контейнера) - Надписи
Субтитры 2 (ASS): Русские (в составе контейнера) - Полные
Субтитры 3 (ASS): Английские (в составе контейнера) - Перевод: Crunchyroll

Список эпизодов
01. Один на миллион айдол / A One-in-a-Million Idol
02. Не смотри на айдолов свысока! / Don`t Take Idols Lightly!
03. Айдолы, Сердце, Отклик / Idols, Heart, Resonance
04. Обнажённый Айдол / Naked Idols
05. Рецепт айдола / An Idol`s Recipe
06. Мясо и айдолы / Meat and Idols
07. Пусть слёзы айдолов летят на бумажном самолётике / Put Idols` Tears on an Airplane...
Скриншоты




MediaInfo
General
Unique ID : 242663486507781601900287679611521264879 (0xB68F499A170026E5A88948846408ECEF)
Complete name : E:/Torrent_2/Ongaku Shoujo (2018, AVC WEBRip-720p, RUS JAP+SUB)/[HorribleSubs] Ongaku Shoujo - 01 [720p] [Persona99.GSG].mkv
Format : Matroska
Format version : Version 2
File size : 426 MiB
Duration : 23mn 44s
Overall bit rate : 2 507 Kbps
Encoded date : UTC 2018-08-13 13:34:10
Writing application : mkvmerge v5.5.0 ('Healer') built on Apr 6 2012 21:43:24
Writing library : libebml v1.2.3 + libmatroska v1.3.0
Attachment : Yes

Video #1
ID : 1
Format : AVC
Format/Info : Advanced Video Codec
Format profile : High@L4.0
Format settings, CABAC : Yes
Format settings, ReFrames : 6 frames
Codec ID : V_MPEG4/ISO/AVC
Duration : 23mn 44s
Bit rate : 2 073 Kbps
Width : 1 280 pixels
Height : 720 pixels
Display aspect ratio : 16:9
Frame rate mode : Constant
Frame rate : 23.976 fps
Color space : YUV
Chroma subsampling : 4:2:0
Bit depth : 8 bits
Scan type : Progressive
Bits/(Pixel*Frame) : 0.094
Stream size : 352 MiB (83%)
Writing library : x264 core 142
Encoding settings : cabac=1 / ref=6 / deblock=1:1:1 / analyse=0x3:0x113 / me=umh / subme=8 / psy=1 / psy_rd=0.40:0.00 / mixed_ref=1 / me_range=16 / chroma_me=1 / trellis=1 / 8x8dct=1 / cqm=0 / deadzone=21,11 / fast_pskip=1 / chroma_qp_offset=-2 / threads=10 / lookahead_threads=1 / sliced_threads=0 / nr=0 / decimate=1 / interlaced=0 / bluray_compat=0 / constrained_intra=0 / bframes=3 / b_pyramid=2 / b_adapt=2 / b_bias=0 / direct=3 / weightb=1 / open_gop=0 / weightp=2 / keyint=48 / keyint_min=24 / scenecut=40 / intra_refresh=0 / rc_lookahead=48 / rc=crf / mbtree=1 / crf=15.0 / qcomp=0.60 / qpmin=0 / qpmax=69 / qpstep=4 / vbv_maxrate=4000 / vbv_bufsize=6000 / crf_max=0.0 / nal_hrd=none / filler=0 / ip_ratio=1.40 / aq=1:0.60
Language : Japanese
Default : Yes
Forced : No

Audio #2
ID : 2
Format : AC-3
Format/Info : Audio Coding 3
Mode extension : CM (complete main)
Format settings, Endianness : Big
Codec ID : A_AC3
Duration : 23mn 44s
Bit rate mode : Constant
Bit rate : 192 Kbps
Channel(s) : 2 channels
Channel positions : Front: L R
Sampling rate : 48.0 KHz
Bit depth : 16 bits
Compression mode : Lossy
Stream size : 32.6 MiB (8%)
Title : Persona99 [Get Smart Group]
Language : Russian
Default : Yes
Forced : No

Audio #3
ID : 3
Format : AC-3
Format/Info : Audio Coding 3
Mode extension : CM (complete main)
Format settings, Endianness : Big
Codec ID : A_AC3
Duration : 23mn 44s
Bit rate mode : Constant
Bit rate : 192 Kbps
Channel(s) : 2 channels
Channel positions : Front: L R
Sampling rate : 48.0 KHz
Bit depth : 16 bits
Compression mode : Lossy
Stream size : 32.6 MiB (8%)
Language : Japanese
Default : No
Forced : No

Text #4
ID : 4
Format : ASS
Codec ID : S_TEXT/ASS
Codec ID/Info : Advanced Sub Station Alpha
Compression mode : Lossless
Title : Надписи
Language : Russian
Default : Yes
Forced : No

Text #5
ID : 5
Format : ASS
Codec ID : S_TEXT/ASS
Codec ID/Info : Advanced Sub Station Alpha
Compression mode : Lossless
Title : Полные
Language : Russian
Default : No
Forced : No

Text #6
ID : 6
Format : ASS
Codec ID : S_TEXT/ASS
Codec ID/Info : Advanced Sub Station Alpha
Compression mode : Lossless
Language : English
Default : No
Forced : No
 

Вложения

  • 14,5 KB Просмотры: 1
    Личеров 0
    Сидеров 0
    Файлов 7
    Объем 2,6 GB

Привет!

Мы группа людей которые решили помочь другим в решении их проблем, а так же пользователям с поиском самых свежих и качественных инфопродуктов. За 4 с небольшим месяца мы создали этот форум на который заходят ежедневно тысячи человек и посещаемость постоянно растёт. Мы создали панель лицензирования для защиты PHP скриптов от воровства и SEO панель для мониторинга наших сайтов и выбора верной стратегии их развития. Мы надеемся что то что мы создали пригодится Вам и возможно Вы поможете нам развиваться и совершенствоваться вместе с Вами.

Статистика форума

Темы
406.544
Сообщения
464.663
Пользователи
83.278
Новый пользователь
Al Verde

Приложения форума для iOS и Android


У ркн там нет власти ;)
Приватные разговоры
Помощь Пользователи
    Вы не присоединились ни к одной комнате.