За последнюю неделю опубликовано 82 новых материалов.
Инструкция новичку Путеводитель по форуму Прокси для Telegram Показать подсказки , это бомба!

Скачать Мужские надежды / Muzi v nadeji (2011) BDRip 1080p от OlLanDGroup | А бесплатно через торрент

  • Поучаствуй (в качестве покупателя) в любых пяти совместных покупках (кроме завершённых и "Моментальных") и получи группу "Новичок" навсегда -> ссылка на раздел
  • Получай до 480 рублей за каждого приглашенного пользователя!
    представляем Вам очередное расширение партнерской программы, подробности описаны тут -> ссылка
  • 90% материалов доступно к скачиванию после простой регистрации!
    Если же ты хочешь скачивать материалы без требования оставлять отзывы то получи группу "Новичок", 10 способов повышения описаны тут -> ссылка
  • К сожалению количество битых ссылок растет и мы уже не можем их оперативно восстанавливать поэтому просим помощи у каждого нашего пользователя.
    С сегодняшнего дня, за каждую восстановленную ссылку мы заплатим Вам.
    Подробнее тут -> ссылка
  • Перенесем твои заслуги с другого ресурса!
    Мы понимаем как сложно прокачивать аккаунты на форумах, вроде раскачал аккаунт, а тут появляется ресурс в 100 раз круче но тоже с системой прокачки и снова качать аккаунт...
    Предлагаем вам перенести Ваши заслуги на другом подобном ресурсе к нам.
    Подробности описаны тут -> ссылка
  • Вы можете получать по 2.5% с каждой покупки и продажи на маркете! Подробности в теме Партнёрская программа
Если Вы не хотите скачивать, Вы всегда можетепосмотретьонлайн, просто нажмите кнопку ниже :

Открыть плеер

Torrent_Bot

Торрент-Бот
Бот форума
4 Окт 2016
104
152
20


Информация о фильме


Название: Мужские надежды
Оригинальное название: Muži v naději
Год выпуска: 2011
Жанр:Драма, мелодрама, комедия
Выпущено: Чехия, RWE, Infinity
Режиссер: Иржи Вейделек
В ролях: Иржи Махачек, Болек Поливка, Петра Гржебичкова, Вица Керекеш, Симона Сташова, Лукас Лангмайер, Гинек Сермак, Филип Антонио, Йитка Чванчарова, Вацлав Илек, Сюзанна Онуфракова, Войцех Швейда, Милан Быцек


О фильме: Симпатичный бонвиван и весельчак Рудольф совершенно уверен: "Женщине просто необходимо бороться за своего мужчину. Она должна постоянно стараться удержать его. А главное, женщина не должна с ним скучать!..." Рудольф с завидной для 63-летнего мужчины энергией довольно успешно реализует свою теорию в повседневной жизни. Разумеется, при таком характере ему сложно понять наивного и невыносимо корректного зятя Андрея, который с особой ответственностью исполняет свои супружеские обязанности, но при этом совершенно не замечает, как заскучала его жена. Любящий отец и дружески настроенный тесть решает протянуть Андрею мужскую руку помощи в виде нескольких проверенных советов, как оживить обречённый на развал брак. В конце концов, на карту поставлено семейное счастье его единственной дочери... Советы тестя оказались действенными. Вскоре Андрей из скучного зануды с тусклым взглядом превращается в уверенного в себе хозяина положения, которого ценит любовница и обожает собственная жена. Ситуация эта хоть и приятна, но трудно удержима. Уже хотя бы потому, что настоящими хозяевами положения, разумеется, остаются женщины. Андрея ожидает водоворот комических ситуаций, которые он пытается разрулить с типично мужской изворотливостью и изобретательностью, твердо веря в то, что всё должно обойтись как нельзя лучше...






Качество: BDRip (1080p)
Видео: MPEG-4 AVC, 12700 Кбит/с, 1920x1080, 25 кадр/с
Аудио: Русский (AC3, 6 ch, 640 Кбит/с), (DTS, 6 ch, 1509 Кбит/с)
Размер: 11.43 ГБ
Продолжительность: 01:50:14
Перевод: Авторский
Субтитры: Русские


Озвучивание - Авторское одноголосое (Алексеев)
Сохранены оригинальные чаптеры как на Blu-Ray.


Инфо-файл
Общее
Уникальный идентификатор : 211757650232590503431740594271420843850 (0x9F4F0A3A6637FEF4826A0D33F276874A)
Полное имя : D:ЗагрузкиMuzskie.Nadezdi.2011.x264.BDRip.(1080p).OlLanDGroup.mkv
Формат : Matroska
Версия формата : Version 4 / Version 2
Размер файла : 11,4 Гбайт
Продолжительность : 1 ч. 50 м.
Общий поток : 14,8 Мбит/сек
Дата кодирования : UTC 2020-05-15 18:44:03
Программа кодирования : mkvmerge v6.5.0 ('Isn't she lovely') built on Oct 20 2013 12:50:05
Библиотека кодирования : libebml v1.3.0 + libmatroska v1.4.1
Обложка : Yes
Attachments : Cover - Muzskie.Nadezdi.png

Видео
Идентификатор : 1
Формат : AVC
Формат/Информация : Advanced Video Codec
Профиль формата : High@L4.1
Настройки формата : CABAC / 4 Ref Frames
Параметр CABAC формата : Да
Параметр ReFrames формата : 4 кадра
Идентификатор кодека : V_MPEG4/ISO/AVC
Продолжительность : 1 ч. 50 м.
Битрейт : 12,7 Мбит/сек
Ширина : 1920 пикселей
Высота : 1080 пикселей
Соотношение сторон : 16:9
Режим частоты кадров : Постоянный
Частота кадров : 25,000 кадров/сек
Цветовое пространство : YUV
Субдискретизация насыщенности : 4:2:0
Битовая глубина : 8 бит
Тип развёртки : Прогрессивная
Бит/(Пиксели*Кадры) : 0.245
Размер потока : 9,55 Гбайт (84%)
Библиотека кодирования : x264 core 146 r2538 121396c
Настройки программы : cabac=1 / ref=4 / deblock=1:-3:-3 / analyse=0x3:0x133 / me=umh / subme=11 / psy=1 / psy_rd=0.90:0.05 / mixed_ref=1 / me_range=64 / chroma_me=1 / trellis=2 / 8x8dct=1 / cqm=0 / deadzone=21,11 / fast_pskip=0 / chroma_qp_offset=-3 / threads=12 / lookahead_threads=3 / sliced_threads=0 / nr=0 / decimate=0 / interlaced=0 / bluray_compat=0 / constrained_intra=0 / bframes=10 / b_pyramid=2 / b_adapt=2 / b_bias=0 / direct=3 / weightb=1 / open_gop=0 / weightp=2 / keyint=250 / keyint_min=25 / scenecut=40 / intra_refresh=0 / rc_lookahead=40 / rc=2pass / mbtree=0 / bitrate=12700 / ratetol=1.0 / qcomp=0.60 / qpmin=0 / qpmax=69 / qpstep=4 / cplxblur=20.0 / qblur=0.5 / vbv_maxrate=50000 / vbv_bufsize=62500 / nal_hrd=none / filler=0 / ip_ratio=1.40 / pb_ratio=1.30 / aq=1:1.00
Язык : English
Default : Да
Forced : Нет

Аудио #1
Идентификатор : 2
Формат : AC-3
Формат/Информация : Audio Coding 3
Идентификатор кодека : A_AC3
Продолжительность : 1 ч. 50 м.
Вид битрейта : Постоянный
Битрейт : 640 Кбит/сек
Каналы : 6 каналов
Расположение каналов : Front: L C R, Side: L R, LFE
Частота : 48,0 КГц
Частота кадров : 31,250 кадров/сек (1536 SPF)
Битовая глубина : 16 бит
Метод сжатия : С потерями
Размер потока : 505 Мбайт (4%)
Заголовок : Алексеев
Язык : Russian
Service kind : Complete Main
Default : Да
Forced : Нет

Аудио #2
Идентификатор : 3
Формат : DTS
Формат/Информация : Digital Theater Systems
Идентификатор кодека : A_DTS
Продолжительность : 1 ч. 50 м.
Вид битрейта : Постоянный
Битрейт : 1509 Кбит/сек
Каналы : 6 каналов
Расположение каналов : Front: L C R, Side: L R, LFE
Частота : 48,0 КГц
Частота кадров : 93,750 кадра/сек (512 SPF)
Битовая глубина : 24 бит
Метод сжатия : С потерями
Размер потока : 1,16 Гбайт (10%)
Заголовок : Алексеев
Язык : Russian
Default : Нет
Forced : Нет

Текст
Идентификатор : 4
Формат : UTF-8
Идентификатор кодека : S_TEXT/UTF8
Идентификатор кодека/Информация : UTF-8 Plain Text
Заголовок : SDH
Язык : Russian
Default : Нет
Forced : Нет

Меню
00:00:00.000 : :Chapter 01
00:07:39.240 : :Chapter 02
00:12:12.640 : :Chapter 03
00:21:18.600 : :Chapter 04
00:31:40.600 : :Chapter 05
00:39:55.080 : :Chapter 06
00:51:33.960 : :Chapter 07
00:59:57.160 : :Chapter 08
01:12:14.520 : :Chapter 09
01:21:18.640 : :Chapter 10
01:29:00.880 : :Chapter 11
01:44:34.920 : :Chapter 12
Скриншоты


Релиз от: Rip by:
 

Вложения

  • 29,6 KB Просмотры: 0
    Личеров 0
    Сидеров 0
    Файлов 1
    Объем 11,4 GB

Привет!

Мы группа людей которые решили помочь другим в решении их проблем, а так же пользователям с поиском самых свежих и качественных инфопродуктов. За 4 с небольшим месяца мы создали этот форум на который заходят ежедневно тысячи человек и посещаемость постоянно растёт. Мы создали панель лицензирования для защиты PHP скриптов от воровства и SEO панель для мониторинга наших сайтов и выбора верной стратегии их развития. Мы надеемся что то что мы создали пригодится Вам и возможно Вы поможете нам развиваться и совершенствоваться вместе с Вами.

Статистика форума

Темы
404.531
Сообщения
461.403
Пользователи
80.030
Новый пользователь
sham945

Приложения форума для iOS и Android


У ркн там нет власти ;)
Приватные разговоры
Помощь Пользователи
    Вы не присоединились ни к одной комнате.