За последнюю неделю опубликовано 171 новых материалов.
Инструкция новичку Путеводитель по форуму Прокси для Telegram Показать подсказки , это бомба!

Скачать Мужская женская игра (2011) DVB бесплатно через торрент

  • Поучаствуй (в качестве покупателя) в любых пяти совместных покупках (кроме завершённых и "Моментальных") и получи группу "Новичок" навсегда -> ссылка на раздел
  • Получай до 480 рублей за каждого приглашенного пользователя!
    представляем Вам очередное расширение партнерской программы, подробности описаны тут -> ссылка
  • 90% материалов доступно к скачиванию после простой регистрации!
    Если же ты хочешь скачивать материалы без требования оставлять отзывы то получи группу "Новичок", 10 способов повышения описаны тут -> ссылка
  • К сожалению количество битых ссылок растет и мы уже не можем их оперативно восстанавливать поэтому просим помощи у каждого нашего пользователя.
    С сегодняшнего дня, за каждую восстановленную ссылку мы заплатим Вам.
    Подробнее тут -> ссылка
  • Перенесем твои заслуги с другого ресурса!
    Мы понимаем как сложно прокачивать аккаунты на форумах, вроде раскачал аккаунт, а тут появляется ресурс в 100 раз круче но тоже с системой прокачки и снова качать аккаунт...
    Предлагаем вам перенести Ваши заслуги на другом подобном ресурсе к нам.
    Подробности описаны тут -> ссылка
  • Вы можете получать по 2.5% с каждой покупки и продажи на маркете! Подробности в теме Партнёрская программа
Если Вы не хотите скачивать, Вы всегда можетепосмотретьонлайн, просто нажмите кнопку ниже :

Открыть плеер

Torrent_Bot

Торрент-Бот
Бот форума
4 Окт 2016
124
96
20
5df344403cc06484257d21d9191630a4.png
Жанр: комедия, спорт
Год выпуска: 2011
Продолжительность: 01:28:29

Режиссёр: Мария Маханько

В ролях: Валерий Баринов, Дарья Чаруша, Михаил Станкевич, Егор Баринов, Алена и Анастасия Антоновы, Валентина Рубцова, Максим Коновалов, Павел Сборщиков

Описание: Строительная компания, чтобы выиграть тендер на возведение крупного стадиона, вынуждена собрать из своих сотрудниц. .. футбольную команду! А всё потому, что заказчик больше всего на свете, видите ли, любит две вещи — футбол и женщин!

И вот девушки, никогда не смотревшие футбол даже по телевизору, включая секретаршу, экономиста, крановщицу, маляршу, шлифмастера, повариху и охранницу, вынуждены снять шпильки и надеть бутсы…


Сэмпл: Multi-UP.COM залейте нам один раз - мы зальем всюду ::

Качество видео: DVB
Формат видео: MPEG-PS

Видео: MPEG-2 Video, 720x576 (4:3), 25 fps, 3 384 Kbps, 0.33 bit/pixel
Аудио: 48 kHz, MPEG Audio, 2 ch, 192 kbps
MediaInfo
General
Complete name : C:Мужская женская игра_2011_DVB_by_dean10.mpg
Format : MPEG-PS
File size : 2.26 GiB
Duration : 1h 28mn
Overall bit rate mode : Variable
Overall bit rate : 3 649 Kbps

Video
ID : 224 (0xE0)
Format : MPEG Video
Format version : Version 2
Format profile : Main@Main
Format settings, BVOP : Yes
Format settings, Matrix : Custom
Duration : 1h 28mn
Bit rate mode : Variable
Bit rate : 3 384 Kbps
Maximum bit rate : 15.0 Mbps
Width : 720 pixels
Height : 576 pixels
Display aspect ratio : 4:3
Frame rate : 25.000 fps
Standard : PAL
Color space : YUV
Chroma subsampling : 4:2:0
Bit depth : 8 bits
Scan type : Interlaced
Scan order : Top Field First
Compression mode : Lossy
Bits/(Pixel*Frame) : 0.326
Stream size : 2.09 GiB (93%)

Audio
ID : 192 (0xC0)
Format : MPEG Audio
Format version : Version 1
Format profile : Layer 2
Duration : 1h 28mn
Bit rate mode : Constant
Bit rate : 192 Kbps
Channel(s) : 2 channels
Sampling rate : 48.0 KHz
Compression mode : Lossy
Stream size : 122 MiB (5%)
Bitrate Viewer
ed3dd039656413df162fc1f2fb43f083.png
Скриншоты
0ff7789207b44fbafa304ee73a7db966.jpegd68930f0c91fbf4df15c4b3e53622fe2.jpegfe048f1f9ddd165b96e999b4fa7c7127.jpeg6603464ba4aedd90ebfb54f37b911eae.jpeg
 

Вложения

Ваш e-mail не будет опубликован. Он потребуется для подтверждения Вашего поста.
Оформление текста Нажмите «Ввод», чтобы отправить ответ.

Привет!

Мы группа людей которые решили помочь другим в решении их проблем, а так же пользователям с поиском самых свежих и качественных инфопродуктов. За 4 с небольшим месяца мы создали этот форум на который заходят ежедневно тысячи человек и посещаемость постоянно растёт. Мы создали панель лицензирования для защиты PHP скриптов от воровства и SEO панель для мониторинга наших сайтов и выбора верной стратегии их развития. Мы надеемся что то что мы создали пригодится Вам и возможно Вы поможете нам развиваться и совершенствоваться вместе с Вами.

Статистика форума

Темы
380.675
Сообщения
420.276
Пользователи
50.600
Новый пользователь
midav

Приложения форума для iOS и Android


У ркн там нет власти ;)
Приватные разговоры
Помощь Пользователи
    Вы не присоединились ни к одной комнате.