За последнюю неделю опубликовано 0 новых материалов.
Инструкция новичку Путеводитель по форуму Прокси для Telegram Показать подсказки , это бомба!

Скачать Мушкетеры 20 лет спустя (1992) 2xDVD9 бесплатно через торрент

  • Поучаствуй (в качестве покупателя) в любых пяти совместных покупках (кроме завершённых и "Моментальных") и получи группу "Новичок" навсегда -> ссылка на раздел
  • Получай до 480 рублей за каждого приглашенного пользователя!
    представляем Вам очередное расширение партнерской программы, подробности описаны тут -> ссылка
  • 90% материалов доступно к скачиванию после простой регистрации!
    Если же ты хочешь скачивать материалы без требования оставлять отзывы то получи группу "Новичок", 10 способов повышения описаны тут -> ссылка
  • К сожалению количество битых ссылок растет и мы уже не можем их оперативно восстанавливать поэтому просим помощи у каждого нашего пользователя.
    С сегодняшнего дня, за каждую восстановленную ссылку мы заплатим Вам.
    Подробнее тут -> ссылка
  • Перенесем твои заслуги с другого ресурса!
    Мы понимаем как сложно прокачивать аккаунты на форумах, вроде раскачал аккаунт, а тут появляется ресурс в 100 раз круче но тоже с системой прокачки и снова качать аккаунт...
    Предлагаем вам перенести Ваши заслуги на другом подобном ресурсе к нам.
    Подробности описаны тут -> ссылка
  • Вы можете получать по 2.5% с каждой покупки и продажи на маркете! Подробности в теме Партнёрская программа
Если Вы не хотите скачивать, Вы всегда можетепосмотретьонлайн, просто нажмите кнопку ниже :

Открыть плеер

Torrent_Bot

Торрент-Бот
Бот форума
4 Окт 2016
79
196
20
Информация о фильме
Название: Мушкетеры 20 лет спустя
Год выхода: 1992
Жанр: приключения
Режиссер: Георгий Юнгвальд-Хилькевич
В ролях: Михаил Боярский, Вениамин Смехов, Валентин Смирнитский, Игорь Старыгин, Виктор Авилов, Анатолий Равикович, Як Принц, Владимир Балон, Александр Бараблин, Олег Белов

О фильме:
В неспокойное для Франции и себя лично время кардинал Мазарини требует у королевы Анны поделиться с ним именами четверки друзей, которые с успехом помогали ей в борьбе против кардинала Ришелье. Королева называет имя д’Артаньяна, лейтенанта королевских мушкетеров.

Мазарини вызывает его к себе и приказывает разыскать Атоса, Портоса и Арамиса, заодно попытавшись привлечь их к нему на службу. Но д’Артаньяну удается выполнить поручение лишь наполовину: в то время как Портос, далекий от политики, присоединяется к нему, Атос и Арамис оказываются по другую сторону баррикад — они всецело поддерживают враждебную кардиналу Фронду. Таким образом, бывшие друзья оказываются врагами и их пути пересекутся гораздо раньше, чем они могли бы предположить…




Страна: Россия
Студия: Студия Москва, Союзтелефильм
Продолжительность: 300 мин. / 05:00
Перевод: не требуется

Файл
Кодек: MPEG2
Качество: 2xDVD9
Видео: PAL 4:3 ([email protected]) CBR 7600 Kbps, 25.000 fps
Звук: Dolby AC3, 2 ch, 48.0 KHz, 192 Kbps
Субтитры: отсутствуют

MediaInfo
General
Complete name : D:МУШКЕТЕРЫ. 20 лет спустяMUSHKETERS 1DISKVIDEO_TSVTS_02_1.VOB
Format : MPEG-PS
File size : 1 024 MiB
Duration : 18mn 2s
Overall bit rate : 7 932 Kbps

Video
ID : 224 (0xE0)
Format : MPEG Video
Format version : Version 2
Format profile : [email protected]
Format settings, BVOP : Yes
Format settings, Matrix : Custom
Format settings, GOP : M=3, N=12
Format settings, picture struc : Frame
Duration : 18mn 2s
Bit rate : 7 600 Kbps
Width : 720 pixels
Height : 576 pixels
Display aspect ratio : 4:3
Frame rate : 25.000 fps
Standard : PAL
Color space : YUV
Chroma subsampling : 4:2:0
Bit depth : 8 bits
Scan type : Interlaced
Scan order : Top Field First
Compression mode : Lossy
Bits/(Pixel*Frame) : 0.733
Time code of first frame : 00:00:00:01
Time code source : Group of pictures header
Stream size : 979 MiB (96%)

Audio
ID : 189 (0xBD)-128 (0x80)
Format : AC-3
Format/Info : Audio Coding 3
Mode extension : CM (complete main)
Format settings, Endianness : Big
Muxing mode : DVD-Video
Duration : 18mn 2s
Bit rate mode : Constant
Bit rate : 192 Kbps
Channel(s) : 2 channels
Channel positions : Front: L R
Sampling rate : 48.0 KHz
Bit depth : 16 bits
Compression mode : Lossy
Stream size : 24.8 MiB (2%)

Menu
Скриншоты
 

Вложения

  • 152,1 KB Просмотры: 0
    Личеров 0
    Сидеров 0
    Файлов 42
    Объем 14,8 GB

Привет!

Мы группа людей которые решили помочь другим в решении их проблем, а так же пользователям с поиском самых свежих и качественных инфопродуктов. За 4 с небольшим месяца мы создали этот форум на который заходят ежедневно тысячи человек и посещаемость постоянно растёт. Мы создали панель лицензирования для защиты PHP скриптов от воровства и SEO панель для мониторинга наших сайтов и выбора верной стратегии их развития. Мы надеемся что то что мы создали пригодится Вам и возможно Вы поможете нам развиваться и совершенствоваться вместе с Вами.

Статистика форума

Темы
414.370
Сообщения
475.396
Пользователи
96.561
Новый пользователь
starushka

Приложения форума для iOS и Android


У ркн там нет власти ;)
Приватные разговоры
Помощь Пользователи
    Вы не присоединились ни к одной комнате.