За последнюю неделю опубликовано 88 новых материалов.
Инструкция новичку Путеводитель по форуму Прокси для Telegram Показать подсказки , это бомба!

Скачать Мозг / The Brain (1988) BDRip-AVC | A бесплатно через торрент

  • Поучаствуй (в качестве покупателя) в любых пяти совместных покупках (кроме завершённых и "Моментальных") и получи группу "Новичок" навсегда -> ссылка на раздел
  • Получай до 480 рублей за каждого приглашенного пользователя!
    представляем Вам очередное расширение партнерской программы, подробности описаны тут -> ссылка
  • 90% материалов доступно к скачиванию после простой регистрации!
    Если же ты хочешь скачивать материалы без требования оставлять отзывы то получи группу "Новичок", 10 способов повышения описаны тут -> ссылка
  • К сожалению количество битых ссылок растет и мы уже не можем их оперативно восстанавливать поэтому просим помощи у каждого нашего пользователя.
    С сегодняшнего дня, за каждую восстановленную ссылку мы заплатим Вам.
    Подробнее тут -> ссылка
  • Перенесем твои заслуги с другого ресурса!
    Мы понимаем как сложно прокачивать аккаунты на форумах, вроде раскачал аккаунт, а тут появляется ресурс в 100 раз круче но тоже с системой прокачки и снова качать аккаунт...
    Предлагаем вам перенести Ваши заслуги на другом подобном ресурсе к нам.
    Подробности описаны тут -> ссылка
  • Вы можете получать по 2.5% с каждой покупки и продажи на маркете! Подробности в теме Партнёрская программа
Если Вы не хотите скачивать, Вы всегда можетепосмотретьонлайн, просто нажмите кнопку ниже :

Открыть плеер

Torrent_Bot

Торрент-Бот
Бот форума
4 Окт 2016
104
152
20



Информация о фильме
Название: Мозг
Оригинальное название: The Brain
Год выхода: 1988
Жанр: Ужасы, фантастика
Режиссер: Эд Хант
В ролях: Том Брезнахан, Синтия Престон, Дэвид Гэйл, Джордж Бьюза, Кристина Коссак, Бретт Пирсон, Бернис Куигган, Сюзанна Хоффман, Джастин Кэмпбелл, Роберт Кинг и др.

О фильме:
Доктор Блэйк, ведущий известного телевизионного шоу, с помощью инопланетного организма, условно называемого Мозгом, промывает мозги телезрителям, вынашивая идеи мирового господства.



Страна: Канада, США
Продолжительность: 01:31:06
Перевод: Авторский (одноголосый закадровый) Антон Алексеев + Оригинал

Файл
Кодек: x.264
Качество: BDRip-AVC | исх. BDRemux 1080р
Видео: h264 / 2450 kbps / 1008x544 / 23,976 fps
Звук: 48 kHz / 2 ch / 192 kbps
Субтитры: Английские

Релиз от: Alukard14

log
x264 [info]: frame I:1720 Avg QP:21.24 size: 72615
x264 [info]: frame P:19158 Avg QP:24.51 size: 24303
x264 [info]: frame B:110175 Avg QP:25.32 size: 9813
x264 [info]: consecutive B-frames: 6.7% 0.6% 0.4% 0.6% 0.7% 0.7% 0.8% 1.5% 0.9% 1.0% 86.0%
x264 [info]: mb I I16..4: 19.4% 69.6% 11.0%
x264 [info]: mb P I16..4: 0.6% 11.3% 0.6% P16..4: 34.6% 38.3% 10.0% 0.0% 0.0% skip: 4.6%
x264 [info]: mb B I16..4: 0.0% 1.0% 0.1% B16..8: 39.9% 18.1% 3.3% direct: 6.2% skip:31.3% L0:46.5% L1:47.5% BI: 6.0%
x264 [info]: 8x8 transform intra:83.8% inter:61.6%
x264 [info]: direct mvs spatial:99.3% temporal:0.7%
x264 [info]: coded y,uvDC,uvAC intra: 94.2% 74.5% 40.6% inter: 28.2% 18.0% 2.0%
x264 [info]: i16 v,h,dc,p: 16% 11% 31% 42%
x264 [info]: i8 v,h,dc,ddl,ddr,vr,hd,vl,hu: 6% 6% 10% 11% 15% 14% 14% 11% 13%
x264 [info]: i4 v,h,dc,ddl,ddr,vr,hd,vl,hu: 7% 7% 8% 9% 15% 15% 14% 11% 13%
x264 [info]: i8c dc,h,v,p: 37% 28% 19% 17%
x264 [info]: Weighted P-Frames: Y:6.8% UV:2.0%
x264 [info]: ref P L0: 43.0% 9.3% 19.9% 7.3% 6.2% 3.9% 3.7% 1.7% 1.7% 1.3% 1.4% 0.6% 0.0%
x264 [info]: ref B L0: 68.5% 13.9% 7.0% 3.6% 2.4% 1.9% 1.3% 0.8% 0.4% 0.1%
x264 [info]: ref B L1: 88.8% 11.2%
x264 [info]: kb/s:2446.61
MediaInfo
Общее
Уникальный идентификатор : 246367835447795218572013878257352990332 (0xB958B81B04DEC62EAF8E322E02505E7C)
Полное имя : E:TestThe.Brain.1988.BDRip-AVC.by.Alukard14.mkv
Формат : Matroska
Версия формата : Version 2
Размер файла : 1,80 Гбайт
Продолжительность : 1 ч. 31 м.
Общий поток : 2831 Кбит/сек
Дата кодирования : UTC 2019-07-04 13:05:26
Программа кодирования : mkvmerge v4.1.1 ('Bouncin' Back') сборка от Jul 3 2010 22:54:08
Библиотека кодирования : libebml v1.0.0 + libmatroska v1.0.0

Видео
Идентификатор : 1
Формат : AVC
Формат/Информация : Advanced Video Codec
Профиль формата : High@L4.1
Настройки формата : CABAC / 11 Ref Frames
Параметр CABAC формата : Да
Параметр RefFrames формата : 11 кадров
Идентификатор кодека : V_MPEG4/ISO/AVC
Продолжительность : 1 ч. 31 м.
Битрейт : 2450 Кбит/сек
Ширина : 1008 пикселей
Высота : 544 пикселя
Соотношение сторон : 1,85:1
Режим частоты кадров : Постоянный
Частота кадров : 23,976 кадра/сек
Цветовое пространство : YUV
Субдискретизация насыщенности : 4:2:0
Битовая глубина : 8 бит
Тип развёртки : Прогрессивная
Бит/(Пиксели*Кадры) : 0.186
Размер потока : 1,52 Гбайт (84%)
Библиотека кодирования : x264 core 148 r2638 7599210
Настройки программы : cabac=1 / ref=11 / deblock=1:-3:-3 / analyse=0x3:0x113 / me=umh / subme=11 / psy=1 / psy_rd=1.00:0.20 / mixed_ref=1 / me_range=48 / chroma_me=1 / trellis=2 / 8x8dct=1 / cqm=0 / deadzone=21,11 / fast_pskip=0 / chroma_qp_offset=-3 / threads=9 / lookahead_threads=1 / sliced_threads=0 / nr=0 / decimate=0 / interlaced=0 / bluray_compat=0 / constrained_intra=0 / bframes=10 / b_pyramid=2 / b_adapt=0 / b_bias=0 / direct=3 / weightb=1 / open_gop=0 / weightp=2 / keyint=240 / keyint_min=24 / scenecut=40 / intra_refresh=0 / rc_lookahead=40 / rc=2pass / mbtree=0 / bitrate=2450 / ratetol=1.0 / qcomp=0.60 / qpmin=0 / qpmax=69 / qpstep=4 / cplxblur=20.0 / qblur=0.5 / vbv_maxrate=14000 / vbv_bufsize=14000 / nal_hrd=none / filler=0 / ip_ratio=1.40 / pb_ratio=1.30 / aq=1:1.00
Default : Да
Forced : Нет

Аудио #1
Идентификатор : 2
Формат : AC-3
Формат/Информация : Audio Coding 3
Коммерческое название : Dolby Digital
Режим смешивания : Header stripping
Идентификатор кодека : A_AC3
Продолжительность : 1 ч. 31 м.
Вид битрейта : Постоянный
Битрейт : 192 Кбит/сек
Каналы : 2 канала
ChannelLayout : L R
Частота : 48,0 КГц
Частота кадров : 31,250 кадров/сек (1536 SPF)
Битовая глубина : 16 бит
Метод сжатия : С потерями
Размер потока : 125 Мбайт (7%)
Default : Да
Forced : Нет

Аудио #2
Идентификатор : 4
Формат : AC-3
Формат/Информация : Audio Coding 3
Коммерческое название : Dolby Digital
Режим смешивания : Header stripping
Идентификатор кодека : A_AC3
Продолжительность : 1 ч. 31 м.
Вид битрейта : Постоянный
Битрейт : 192 Кбит/сек
Каналы : 2 канала
ChannelLayout : L R
Частота : 48,0 КГц
Частота кадров : 31,250 кадров/сек (1536 SPF)
Битовая глубина : 16 бит
Метод сжатия : С потерями
Размер потока : 125 Мбайт (7%)
Default : Нет
Forced : Нет

Текст
Идентификатор : 3
Формат : UTF-8
Идентификатор кодека : S_TEXT/UTF8
Идентификатор кодека/Информация : UTF-8 Plain Text
Язык : English
Default : Нет
Forced : Нет
Statistics Tags Issue : mkvmerge v33.0.0 ('A Little Bit of Madness') 32-bit 2019-04-14 08:03:01 / mkvmerge v4.1.1 ('Bouncin' Back') сборка от Jul 3 2010 22:54:08 2019-07-04 13:05:26
FromStats_BitRate : 39
FromStats_Duration : 01:27:37.502000000
FromStats_FrameCount : 1118
FromStats_StreamSize : 25933

Меню
00:00:00.000 : :Chapter 01
00:07:54.265 : :Chapter 02
00:18:31.693 : :Chapter 03
00:26:19.744 : :Chapter 04
00:31:11.870 : :Chapter 05
00:38:10.204 : :Chapter 06
00:45:53.792 : :Chapter 07
00:53:30.290 : :Chapter 08
01:00:01.973 : :Chapter 09
01:07:51.942 : :Chapter 10
01:17:34.566 : :Chapter 11
01:25:41.928 : :Chapter 12
01:31:03.458 : :Chapter 13
Скриншоты
 

Вложения

  • 19 KB Просмотры: 1
    Личеров 0
    Сидеров 0
    Файлов 1
    Объем 1,8 GB

Привет!

Мы группа людей которые решили помочь другим в решении их проблем, а так же пользователям с поиском самых свежих и качественных инфопродуктов. За 4 с небольшим месяца мы создали этот форум на который заходят ежедневно тысячи человек и посещаемость постоянно растёт. Мы создали панель лицензирования для защиты PHP скриптов от воровства и SEO панель для мониторинга наших сайтов и выбора верной стратегии их развития. Мы надеемся что то что мы создали пригодится Вам и возможно Вы поможете нам развиваться и совершенствоваться вместе с Вами.

Статистика форума

Темы
404.549
Сообщения
461.463
Пользователи
80.099
Новый пользователь
анатолий1236

Приложения форума для iOS и Android


У ркн там нет власти ;)
Приватные разговоры
Помощь Пользователи
    Вы не присоединились ни к одной комнате.