За последнюю неделю опубликовано 47 новых материалов.
Инструкция новичку Путеводитель по форуму Прокси для Telegram Показать подсказки , это бомба!

Скачать Морозко (1964) WEBRip-AVC бесплатно через торрент

  • Поучаствуй (в качестве покупателя) в любых пяти совместных покупках (кроме завершённых и "Моментальных") и получи группу "Новичок" навсегда -> ссылка на раздел
  • Получай до 480 рублей за каждого приглашенного пользователя!
    представляем Вам очередное расширение партнерской программы, подробности описаны тут -> ссылка
  • 90% материалов доступно к скачиванию после простой регистрации!
    Если же ты хочешь скачивать материалы без требования оставлять отзывы то получи группу "Новичок", 10 способов повышения описаны тут -> ссылка
  • К сожалению количество битых ссылок растет и мы уже не можем их оперативно восстанавливать поэтому просим помощи у каждого нашего пользователя.
    С сегодняшнего дня, за каждую восстановленную ссылку мы заплатим Вам.
    Подробнее тут -> ссылка
  • Перенесем твои заслуги с другого ресурса!
    Мы понимаем как сложно прокачивать аккаунты на форумах, вроде раскачал аккаунт, а тут появляется ресурс в 100 раз круче но тоже с системой прокачки и снова качать аккаунт...
    Предлагаем вам перенести Ваши заслуги на другом подобном ресурсе к нам.
    Подробности описаны тут -> ссылка
  • Вы можете получать по 2.5% с каждой покупки и продажи на маркете! Подробности в теме Партнёрская программа
Если Вы не хотите скачивать, Вы всегда можетепосмотретьонлайн, просто нажмите кнопку ниже :

Открыть плеер

Torrent_Bot

Торрент-Бот
Бот форума
4 Окт 2016
93
160
20

Информация о фильме
Название: Морозко
Год выпуска: 1964
Жанр: Сказка, комедия, семейный
Режиссёр: Александр Роу
В ролях: Александр Хвыля, Наталья Седых, Эдуард Изотов, Инна Чурикова, Павел Павленко, Вера Алтайская, Георгий Милляр, Галина Борисова, Анатолий Кубацкий, Валентин Брылеев

О фильм: Жила-была хорошая добрая девушка Настенька. Злая мачеха заставляла ее работать, не давая продыху. Однажды она решила избавиться от падчерицы и отправила ту замерзать в зимний лес. В этих же краях жил паренек Иван. Он полюбил Настеньку, да вот только был он большим хвастуном, потому лесной колдун и превратил его в медведя. И Настеньке, и Ивану пришлось пройти через много испытаний, прежде чем соединить свои судьбы. И помог им в этом добрый волшебник - дедушка Морозко.



Страна: СССР
Студия: Киностудия имени М. Горького
Продолжительность: 01:18:54
Перевод: Не требуется

Файл
Формат: MKV
Качество: WEBRip-AVC
Видео: MPEG-4 AVC, 788x576, 2118 Kbps, 25.000 fps
Аудио: Russian (AC3, 6 ch, 448 kbps, 16 bits, 48.0 KHz)
Субтитры: Русские, английские



Инфо-файл
General
Unique ID : 209451868799480221902628041312239053436 (0x9D92F66D246A6F6B8EED69A4EABF6A7C)
Complete name : Морозко.1964.mkv
Format : Matroska
Format version : Version 2
File size : 1.44 GiB
Duration : 1 h 18 min
Overall bit rate : 2 618 kb/s
Encoded date : UTC 2020-03-22 16:01:47
Writing application : mkvmerge v7.8.0 ('River Man') 32bit built on Mar 27 2015 16:18:02
Writing library : libebml v1.3.1 + libmatroska v1.4.2

Video
ID : 1
Format : AVC
Format/Info : Advanced Video Codec
Format profile : [email protected]
Format settings : CABAC / 14 Ref Frames
Format settings, CABAC : Yes
Format settings, ReFrames : 14 frames
Codec ID : V_MPEG4/ISO/AVC
Duration : 1 h 18 min
Bit rate : 2 118 kb/s
Width : 788 pixels
Height : 576 pixels
Display aspect ratio : 4:3
Frame rate mode : Constant
Frame rate : 25.000 FPS
Color space : YUV
Chroma subsampling : 4:2:0
Bit depth : 8 bits
Scan type : Progressive
Bits/(Pixel*Frame) : 0.187
Stream size : 1.17 GiB (81%)
Title : Морозко.1964
Writing library : x264 core 157 r2867+103 0d6443f t_mod_Custom_2 [[email protected] X86]
Encoding settings : cabac=1 / ref=14 / deblock=1:-2:-2 / analyse=0x3:0x133 / me=umh / subme=11 / psy=1 / fade_compensate=0.00 / psy_rd=1.05:0.00 / mixed_ref=1 / me_range=32 / chroma_me=1 / trellis=2 / 8x8dct=1 / cqm=0 / deadzone=21,11 / fast_pskip=0 / chroma_qp_offset=-2 / threads=12 / lookahead_threads=3 / sliced_threads=0 / nr=0 / decimate=0 / interlaced=0 / bluray_compat=0 / constrained_intra=0 / fgo=0 / bframes=13 / b_pyramid=2 / b_adapt=2 / b_bias=0 / direct=1 / weightb=1 / open_gop=0 / weightp=2 / keyint=250 / keyint_min=25 / scenecut=40 / intra_refresh=0 / rc_lookahead=60 / rc=crf / mbtree=0 / crf=18.5000 / qcomp=0.60 / qpmin=0:0:0 / qpmax=69:69:69 / qpstep=4 / vbv_maxrate=62500 / vbv_bufsize=78125 / crf_max=0.0 / nal_hrd=none / filler=0 / ip_ratio=1.35 / pb_ratio=1.25 / aq=1:0.90 / aq-sensitivity=10.00 / aq-factor=1.00:1.00:1.00 / aq2=0 / aq3=0
Language : Russian
Default : Yes
Forced : No
Color range : Limited
Color primaries : BT.709
Transfer characteristics : BT.709
Matrix coefficients : BT.709

Audio
ID : 2
Format : AC-3
Format/Info : Audio Coding 3
Codec ID : A_AC3
Duration : 1 h 18 min
Bit rate mode : Constant
Bit rate : 448 kb/s
Channel(s) : 6 channels
Channel positions : Front: L C R, Side: L R, LFE
Sampling rate : 48.0 kHz
Frame rate : 31.250 FPS (1536 SPF)
Bit depth : 16 bits
Compression mode : Lossy
Stream size : 253 MiB (17%)
Language : Russian
Service kind : Complete Main
Default : Yes
Forced : No

Text #1
ID : 3
Format : UTF-8
Codec ID : S_TEXT/UTF8
Codec ID/Info : UTF-8 Plain Text
Language : Russian
Default : No
Forced : No

Text #2
ID : 4
Format : UTF-8
Codec ID : S_TEXT/UTF8
Codec ID/Info : UTF-8 Plain Text
Language : English
Default : No
Forced : No

Menu
00:00:00.000 : ru:Титры
00:02:09.960 : ru:До рассвета
00:08:40.480 : ru:Добрый молодец
00:14:15.040 : ru:Старичок-боровичок
00:17:52.880 : ru:Путеводное перышко
00:26:05.480 : ru:Медвежья морда
00:32:15.640 : ru:Макияж
00:33:57.120 : ru:Доброе дело
00:34:44.320 : ru:Сватовство
00:41:13.160 : ru:Ссылка
00:44:22.400 : ru:Баба-Яга
00:48:31.760 : ru:Морозко
00:52:02.080 : ru:Шустрые саночки
00:58:32.720 : ru:Морозильный посох
01:05:40.040 : ru:Марфа и Морозко
01:09:52.240 : ru:Разбойники
01:16:10.560 : ru:Свадьба
 

Вложения

  • 15,3 KB Просмотры: 0
    Личеров 0
    Сидеров 0
    Файлов 1
    Объем 1,4 GB

Привет!

Мы группа людей которые решили помочь другим в решении их проблем, а так же пользователям с поиском самых свежих и качественных инфопродуктов. За 4 с небольшим месяца мы создали этот форум на который заходят ежедневно тысячи человек и посещаемость постоянно растёт. Мы создали панель лицензирования для защиты PHP скриптов от воровства и SEO панель для мониторинга наших сайтов и выбора верной стратегии их развития. Мы надеемся что то что мы создали пригодится Вам и возможно Вы поможете нам развиваться и совершенствоваться вместе с Вами.

Статистика форума

Темы
406.640
Сообщения
465.115
Пользователи
84.582
Новый пользователь
mladshiy

Приложения форума для iOS и Android


У ркн там нет власти ;)
Приватные разговоры
Помощь Пользователи
    Вы не присоединились ни к одной комнате.