За последнюю неделю опубликовано 51 новых материалов.
Инструкция новичку Путеводитель по форуму Прокси для Telegram Показать подсказки , это бомба!

Скачать Морозко (1964) HDTVRip 720p бесплатно через торрент

  • Поучаствуй (в качестве покупателя) в любых пяти совместных покупках (кроме завершённых и "Моментальных") и получи группу "Новичок" навсегда -> ссылка на раздел
  • Получай до 480 рублей за каждого приглашенного пользователя!
    представляем Вам очередное расширение партнерской программы, подробности описаны тут -> ссылка
  • 90% материалов доступно к скачиванию после простой регистрации!
    Если же ты хочешь скачивать материалы без требования оставлять отзывы то получи группу "Новичок", 10 способов повышения описаны тут -> ссылка
  • К сожалению количество битых ссылок растет и мы уже не можем их оперативно восстанавливать поэтому просим помощи у каждого нашего пользователя.
    С сегодняшнего дня, за каждую восстановленную ссылку мы заплатим Вам.
    Подробнее тут -> ссылка
  • Перенесем твои заслуги с другого ресурса!
    Мы понимаем как сложно прокачивать аккаунты на форумах, вроде раскачал аккаунт, а тут появляется ресурс в 100 раз круче но тоже с системой прокачки и снова качать аккаунт...
    Предлагаем вам перенести Ваши заслуги на другом подобном ресурсе к нам.
    Подробности описаны тут -> ссылка
  • Вы можете получать по 2.5% с каждой покупки и продажи на маркете! Подробности в теме Партнёрская программа
Если Вы не хотите скачивать, Вы всегда можетепосмотретьонлайн, просто нажмите кнопку ниже :

Открыть плеер

Torrent_Bot

Торрент-Бот
Бот форума
4 Окт 2016
91
164
20
Информация о фильме
Название: Морозко
Год выхода: 1964
Жанр: фэнтези, мелодрама, комедия, семейный
Режиссер: Александр Роу
В ролях: Александр Хвыля, Наталья Седых, Эдуард Изотов, Инна Чурикова, Павел Павленко, Вера Алтайская, Георгий Милляр, Галина Борисова, Анатолий Кубацкий, Валентин Брылеев

О фильме:
Жила-была хорошая добрая девушка Настенька. Злая мачеха заставляла ее работать, не давая продыху. Однажды она решила избавиться от падчерицы и отправила ту замерзать в зимний лес. В этих же краях жил паренек Иван. Он полюбил Настеньку, да вот только был он большим хвастуном, потому лесной колдун и превратил его в медведя.
И Настеньке, и Ивану пришлось пройти через много испытаний, прежде чем соединить свои судьбы. И помог им в этом добрый волшебник — дедушка Морозко…



Интересно
• Роль Марфушеньки-душеньки могла сыграть Тамара Носова. Александр Роу выбирал между ней и студенткой театрального училища им. Щепкина Инной Чуриковой, которую привела на площадку ассистент режиссера. На пробах надо было грызть орехи, и Чурикова их грызла, «не щадя зубов своих», поэтому Александр Артурович решил снимать ее.
• Большую часть фильма снимали на Кольском полуострове. Остальную часть - под подмосковным Звенигородом.
• Актер, игравший бабу Ягу - Георгий Милляр, в прямом смысле спас фильм от гибели. В помещении, где размещался отснятый материал, произошел обрыв трубы, и Милляр, по стечению обстоятельств, оказался единственным, кто был рядом. Он выносил пленку практически в одних трусах из ледяной воды.
Награды
Главный приз на МКФ фильмов для детей в Венеции в 1965 году.
Фильм «Морозко» получил от Консультативного совета по кинематографии США награду Award of Excellence за лучший киносценарий для семейного просмотра.

Венецианский кинофестиваль, 1965 год
Победитель (1):
Лев Сан-Марко - Гран-при
Страна: СССР
Студия: Киностудия им. М. Горького
Продолжительность: 01:18:50
Перевод: Не требуется

Файл
Качество: HDTVRip 720p
Формат: MKV
Видео: 986x720 (4:3), 25 fps, MPEG-4 AVC ~6276 kbps avg, 0.354 bit/pixel
Звук: АС3, 48 kHz, 6 ch, ~448.00 kbps avg
Субтитры: Чешские, английские

МедиаИнфо
Общее
Уникальный идентификатор : 244084110006161795841826305286489015024 (0xB7A0E3BF832D8181B1B41202289882F0)
Полное имя : D:TorrentsЗавершенныеMorozko.1964.720p.HDTV.x264-DON.mkv
Формат : Matroska
Версия формата : Version 4 / Version 2
Размер файла : 3,78 Гбайт
Продолжительность : 1 ч. 18 м.
Общий поток : 6861 Кбит/сек
Название фильма : Morozko (1964)
Дата кодирования : UTC 2016-01-23 00:55:03
Программа кодирования : mkvmerge v7.9.0 ('Birds') 32bit
Библиотека кодирования : libebml v1.3.1 + libmatroska v1.4.2

Видео
Идентификатор : 1
Формат : AVC
Формат/Информация : Advanced Video Codec
Профиль формата : [email protected]
Параметр CABAC формата : Да
Параметр ReFrames формата : 11 кадров
Идентификатор кодека : V_MPEG4/ISO/AVC
Продолжительность : 1 ч. 18 м.
Битрейт : 6276 Кбит/сек
Ширина : 986 пикселей
Высота : 720 пикселей
Соотношение сторон : 4:3
Режим частоты кадров : Постоянный
Частота кадров : 25,000 кадров/сек
Цветовое пространство : YUV
Субдискретизация насыщенности : 4:2:0
Битовая глубина : 8 бит
Тип развёртки : Прогрессивная
Бит/(Пиксели*Кадры) : 0.354
Размер потока : 3,46 Гбайт (91%)
Библиотека кодирования : x264 core 148 r2638+53 bb29004 t_mod_Custom [[email protected] X86_64]
Настройки программы : cabac=1 / ref=11 / deblock=1:-3:-3 / analyse=0x3:0x133 / me=tesa / subme=10 / psy=1 / fade_compensate=0.00 / psy_rd=1.05:0.00 / mixed_ref=1 / me_range=24 / chroma_me=1 / trellis=2 / 8x8dct=1 / cqm=0 / deadzone=21,11 / fast_pskip=0 / chroma_qp_offset=-2 / threads=12 / lookahead_threads=2 / sliced_threads=0 / nr=0 / decimate=0 / interlaced=0 / bluray_compat=0 / constrained_intra=0 / fgo=0 / bframes=8 / b_pyramid=2 / b_adapt=2 / b_bias=0 / direct=3 / weightb=1 / open_gop=0 / weightp=2 / keyint=250 / keyint_min=25 / scenecut=40 / intra_refresh=0 / rc_lookahead=60 / rc=crf / mbtree=0 / crf=16.0000 / qcomp=0.60 / qpmin=0:0:0 / qpmax=69:69:69 / qpstep=4 / vbv_maxrate=62500 / vbv_bufsize=78125 / crf_max=0.0 / nal_hrd=none / filler=0 / ip_ratio=1.40 / pb_ratio=1.30 / aq=3:0.80 / aq-sensitivity=10.00 / aq-factor=1.00:1.00:1.00 / aq2=0 / aq3=0
Язык : Russian
Default : Да
Forced : Нет

Аудио
Идентификатор : 2
Формат : AC-3
Формат/Информация : Audio Coding 3
Расширение режима : CM (complete main)
Параметр Endianness формата : Big
Идентификатор кодека : A_AC3
Продолжительность : 1 ч. 18 м.
Вид битрейта : Постоянный
Битрейт : 448 Кбит/сек
Каналы : 6 каналов
Расположение каналов : Front: L C R, Side: L R, LFE
Частота : 48,0 КГц
Метод сжатия : С потерями
Размер потока : 253 Мбайт (7%)
Язык : Russian
Default : Да
Forced : Нет

Текст #1
Идентификатор : 3
Формат : UTF-8
Идентификатор кодека : S_TEXT/UTF8
Идентификатор кодека/Информация : UTF-8 Plain Text
Язык : Czech
Default : Нет
Forced : Нет

Текст #2
Идентификатор : 4
Формат : UTF-8
Идентификатор кодека : S_TEXT/UTF8
Идентификатор кодека/Информация : UTF-8 Plain Text
Язык : English
Default : Нет
Forced : Нет

Меню
00:00:00.000 : en:00:00:00.000
00:02:08.160 : en:00:02:08.160
00:08:05.760 : en:00:08:05.760
00:14:04.800 : en:00:14:04.800
00:17:49.920 : en:00:17:49.920
00:26:02.880 : en:00:26:02.880
00:32:10.080 : en:00:32:10.080
00:33:53.760 : en:00:33:53.760
00:37:41.760 : en:00:37:41.760
00:41:10.560 : en:00:41:10.560
00:44:14.400 : en:00:44:14.400
00:48:28.320 : en:00:48:28.320
00:52:59.520 : en:00:52:59.520
00:58:29.280 : en:00:58:29.280
01:05:36.000 : en:01:05:36.000
01:09:48.480 : en:01:09:48.480
01:16:06.720 : en:01:16:06.720
Скриншоты



Релиз от
 

Вложения

  • 19,8 KB Просмотры: 0
    Личеров 0
    Сидеров 0
    Файлов 1
    Объем 3,8 GB

Привет!

Мы группа людей которые решили помочь другим в решении их проблем, а так же пользователям с поиском самых свежих и качественных инфопродуктов. За 4 с небольшим месяца мы создали этот форум на который заходят ежедневно тысячи человек и посещаемость постоянно растёт. Мы создали панель лицензирования для защиты PHP скриптов от воровства и SEO панель для мониторинга наших сайтов и выбора верной стратегии их развития. Мы надеемся что то что мы создали пригодится Вам и возможно Вы поможете нам развиваться и совершенствоваться вместе с Вами.

Статистика форума

Темы
410.572
Сообщения
469.128
Пользователи
86.229
Новый пользователь
bie

Приложения форума для iOS и Android


У ркн там нет власти ;)
Приватные разговоры
Помощь Пользователи
    Вы не присоединились ни к одной комнате.