За последнюю неделю опубликовано 24 новых материалов.
Инструкция новичку Путеводитель по форуму Прокси для Telegram Показать подсказки , это бомба!

Скачать Молох (1999) DVDRip-AVC от KORSAR бесплатно через торрент

  • Поучаствуй (в качестве покупателя) в любых пяти совместных покупках (кроме завершённых и "Моментальных") и получи группу "Новичок" навсегда -> ссылка на раздел
  • Получай до 480 рублей за каждого приглашенного пользователя!
    представляем Вам очередное расширение партнерской программы, подробности описаны тут -> ссылка
  • 90% материалов доступно к скачиванию после простой регистрации!
    Если же ты хочешь скачивать материалы без требования оставлять отзывы то получи группу "Новичок", 10 способов повышения описаны тут -> ссылка
  • К сожалению количество битых ссылок растет и мы уже не можем их оперативно восстанавливать поэтому просим помощи у каждого нашего пользователя.
    С сегодняшнего дня, за каждую восстановленную ссылку мы заплатим Вам.
    Подробнее тут -> ссылка
  • Перенесем твои заслуги с другого ресурса!
    Мы понимаем как сложно прокачивать аккаунты на форумах, вроде раскачал аккаунт, а тут появляется ресурс в 100 раз круче но тоже с системой прокачки и снова качать аккаунт...
    Предлагаем вам перенести Ваши заслуги на другом подобном ресурсе к нам.
    Подробности описаны тут -> ссылка
  • Вы можете получать по 2.5% с каждой покупки и продажи на маркете! Подробности в теме Партнёрская программа
Если Вы не хотите скачивать, Вы всегда можетепосмотретьонлайн, просто нажмите кнопку ниже :

Открыть плеер

Torrent_Bot

Торрент-Бот
Бот форума
4 Окт 2016
81
189
20


Молох
Жанр: драма
Год выпуска: 1999
Режиссер: Александр Сокуров
В ролях: Елена Руфанова, Леонид Мозговой, Ирина Соколова, Елена Спиридонова, Владимир Богданов, Анатолий Шведерский, Наталья Никуленко, Расина Цидалко, Всеволод Цурило, Алексей Маклаков

О фильме:
Действие фильма разворачивается в течение суток в призрачном и неприступном доме, построенном в Альпах для человека власти. Власть, претендующая на покорение всего мира, произвела разрушительную работу прежде всего над теми, кто ее олицетворял: Адольф Гитлер и Ева Браун - несоединимые партнеры любовной драмы. Взгляд режиссера направлен в обратную от исторического экрана сторону - вглубь человеческой природы. Трагический гротеск, развернутый на материале гитлеровской Германии, узнаваем в проблемах сегодняшнего мира.



Страна: Германия, Россия, Франция, Япония, Италия
Производство: Ленфильм, ARTE LLC, Westdeutscher Rundfunk (WDR), Zero Film GmbH
Продолжительность: 02:02:56
Перевод: Профессиональный одноголосый

Файл
Формат: MKV
Качество: DVDRip-AVC
Видео: MPEG-4 AVC, [email protected], 25 fps, 2014 Кбит/с
Аудио 1: Русский, AC3, 2 ch, 192 Кбит/с
Аудио 2: Немецкий, AC3, 2 ch, 192 Кбит/с
Cубтитры: русские
Навигация по главам: есть

Mediainfo
x264 [info]: frame I:867 Avg QP:16.21 size: 55630
x264 [info]: frame P:32894 Avg QP:17.84 size: 29753
x264 [info]: frame B:150639 Avg QP:19.86 size: 5511
x264 [info]: consecutive B-frames: 0.6% 0.4% 2.0% 4.7% 12.5% 74.7% 4.2% 0.4% 0.2% 0.1% 0.0%

General
Unique ID : 48662350740956656463794888526286454315 (0x249C0720E41ECEA77E443970C9327E2B)
Complete name : S:FILMSМолох (1999) DVDRip-AVC - KORSAR.mkv
Format : Matroska
Format version : Version 4 / Version 2
File size : 2.06 GiB
Duration : 2 h 2 min
Overall bit rate : 2 400 kb/s
Movie name : Молох (1999)_rip_by_Cthulhu
Encoded date : UTC 2019-12-03 16:28:25
Writing application : mkvmerge v37.0.0 ('Leave It') 64-bit
Writing library : libebml v1.3.9 + libmatroska v1.5.2
Cover : Yes
Attachments : cover21.jpg

Video
ID : 1
Format : AVC
Format/Info : Advanced Video Codec
Format profile : [email protected]
Format settings : CABAC / 16 Ref Frames
Format settings, CABAC : Yes
Format settings, ReFrames : 16 frames
Codec ID : V_MPEG4/ISO/AVC
Duration : 2 h 2 min
Bit rate : 2 014 kb/s
Width : 680 pixels
Height : 454 pixels
Display aspect ratio : 16:10
Original display aspect rat : 16:10
Frame rate mode : Constant
Frame rate : 25.000 FPS
Color space : YUV
Chroma subsampling : 4:2:0
Bit depth : 8 bits
Scan type : Progressive
Bits/(Pixel*Frame) : 0.261
Stream size : 1.73 GiB (84%)
Writing library : x264 core 152 r2851kMod ba24899
Encoding settings : cabac=1 / ref=16 / deblock=1:-1:-1 / analyse=0x3:0x133 / me=umh / subme=11 / psy=1 / fade_compensate=0.00 / psy_rd=1.00:0.02 / mixed_ref=1 / me_range=48 / chroma_me=1 / trellis=2 / 8x8dct=1 / cqm=0 / deadzone=21,11 / fast_pskip=0 / chroma_qp_offset=-3 / threads=14 / lookahead_threads=3 / sliced_threads=0 / nr=0 / decimate=1 / interlaced=0 / bluray_compat=0 / constrained_intra=0 / bframes=10 / b_pyramid=2 / b_adapt=2 / b_bias=0 / direct=3 / weightb=1 / open_gop=0 / weightp=2 / keyint=250 / keyint_min=25 / scenecut=40 / intra_refresh=0 / rc_lookahead=60 / rc=crf / mbtree=0 / crf=18.0000 / qcomp=0.60 / qpmin=0 / qpmax=39 / qpstep=4 / vbv_maxrate=50000 / vbv_bufsize=62500 / crf_max=0.0 / nal_hrd=none / filler=0 / ip_ratio=1.40 / pb_ratio=1.30 / aq=3:1.00
Language : Russian
Default : Yes
Forced : No
Color range : Limited
Color primaries : BT.601 PAL
Transfer characteristics : BT.470 System B/G
Matrix coefficients : BT.470 System B/G

Audio #1
ID : 2
Format : AC-3
Format/Info : Audio Coding 3
Commercial name : Dolby Digital
Codec ID : A_AC3
Duration : 2 h 2 min
Bit rate mode : Constant
Bit rate : 192 kb/s
Channel(s) : 2 channels
Channel layout : L R
Sampling rate : 48.0 kHz
Frame rate : 31.250 FPS (1536 SPF)
Bit depth : 16 bits
Compression mode : Lossy
Stream size : 169 MiB (8%)
Language : Russian
Service kind : Complete Main
Default : Yes
Forced : No

Audio #2
ID : 3
Format : AC-3
Format/Info : Audio Coding 3
Commercial name : Dolby Digital
Codec ID : A_AC3
Duration : 2 h 2 min
Bit rate mode : Constant
Bit rate : 192 kb/s
Channel(s) : 2 channels
Channel layout : L R
Sampling rate : 48.0 kHz
Frame rate : 31.250 FPS (1536 SPF)
Bit depth : 16 bits
Compression mode : Lossy
Stream size : 169 MiB (8%)
Language : German
Service kind : Complete Main
Default : No
Forced : No

Text
ID : 4
Format : UTF-8
Codec ID : S_TEXT/UTF8
Codec ID/Info : UTF-8 Plain Text
Duration : 1 h 47 min
Bit rate : 40 b/s
Count of elements : 563
Stream size : 32.1 KiB (0%)
Language : Russian
Default : No
Forced : No

Menu
00:00:00.000 : en:Chapter 1
00:02:01.800 : en:Chapter 2
00:12:10.800 : en:Chapter 3
00:20:28.200 : en:Chapter 4
00:22:48.600 : en:Chapter 5
00:34:01.200 : en:Chapter 6
00:36:16.800 : en:Chapter 7
00:50:36.600 : en:Chapter 8
01:02:06.000 : en:Chapter 9
01:02:49.200 : en:Chapter 10
01:07:19.200 : en:Chapter 11
01:17:01.200 : en:Chapter 12
01:31:49.800 : en:Chapter 13
01:42:02.400 : en:Chapter 14
01:51:22.800 : en:Chapter 15
Скриншоты

Релиз от: Cthulhu
 

Вложения

  • 11,4 KB Просмотры: 0
    Личеров 0
    Сидеров 0
    Файлов 1
    Объем 2,1 GB

Привет!

Мы группа людей которые решили помочь другим в решении их проблем, а так же пользователям с поиском самых свежих и качественных инфопродуктов. За 4 с небольшим месяца мы создали этот форум на который заходят ежедневно тысячи человек и посещаемость постоянно растёт. Мы создали панель лицензирования для защиты PHP скриптов от воровства и SEO панель для мониторинга наших сайтов и выбора верной стратегии их развития. Мы надеемся что то что мы создали пригодится Вам и возможно Вы поможете нам развиваться и совершенствоваться вместе с Вами.

Статистика форума

Темы
413.012
Сообщения
472.370
Пользователи
93.488
Новый пользователь
LLLLOLOL

Приложения форума для iOS и Android


У ркн там нет власти ;)
Приватные разговоры
Помощь Пользователи
    Вы не присоединились ни к одной комнате.