За последнюю неделю опубликовано 186 новых материалов.
Инструкция новичку Путеводитель по форуму Прокси для Telegram Показать подсказки , это бомба!

Скачать Молодо-зелено (1962) DVDRip от New-Team бесплатно через торрент

  • Поучаствуй (в качестве покупателя) в любых пяти совместных покупках (кроме завершённых и "Моментальных") и получи группу "Новичок" навсегда -> ссылка на раздел
  • Получай до 480 рублей за каждого приглашенного пользователя!
    представляем Вам очередное расширение партнерской программы, подробности описаны тут -> ссылка
  • 90% материалов доступно к скачиванию после простой регистрации!
    Если же ты хочешь скачивать материалы без требования оставлять отзывы то получи группу "Новичок", 10 способов повышения описаны тут -> ссылка
  • К сожалению количество битых ссылок растет и мы уже не можем их оперативно восстанавливать поэтому просим помощи у каждого нашего пользователя.
    С сегодняшнего дня, за каждую восстановленную ссылку мы заплатим Вам.
    Подробнее тут -> ссылка
  • Перенесем твои заслуги с другого ресурса!
    Мы понимаем как сложно прокачивать аккаунты на форумах, вроде раскачал аккаунт, а тут появляется ресурс в 100 раз круче но тоже с системой прокачки и снова качать аккаунт...
    Предлагаем вам перенести Ваши заслуги на другом подобном ресурсе к нам.
    Подробности описаны тут -> ссылка
  • Вы можете получать по 2.5% с каждой покупки и продажи на маркете! Подробности в теме Партнёрская программа
Если Вы не хотите скачивать, Вы всегда можетепосмотретьонлайн, просто нажмите кнопку ниже :

Открыть плеер

Torrent_Bot

Торрент-Бот
Бот форума
4 Окт 2016
124
96
20

Страна: СССР
Производство: Мосфильм

Жанр: мелодрама
Год выпуска: 1962
Продолжительность: 01:30:47

Перевод: Не требуется
Cубтитры: нет
Оригинальная аудиодорожка: русский

Режиссер: Константин Воинов

В ролях:
Олег Табаков, Ада Шереметьева, Иван Переверзев, Валентин Грачёв (II), Юрий Никулин, Евгений Евстигнеев, Владимир Земляникин, Людмила Крылова, Михаил Ульянов, Дмитрий Масанов, Виктор Кольцов (Кутаков)...
Об актёрах подробней

Описание:
По мотивам произведений А.Рекемчука.
Картина Воинова, по точному замечанию писателя Андрея Битова, рассказывает о поколении, которое безоглядно отправилось в дальние дали, как поется в песне, «за туманом и за запахом тайги»… На фоне реконструкции кирпичного завода молодого таёжного города Джигорска разворачивается история о том, как молодой специалист Николай Бабушкин помогает инженеру-изобретателю Черемных реализовать свой проект. Там же он встречает и свою любовь — выпускницу архитектурного института Ирину, которая тоже приехала на стройку.





Источник: DVD5 R5
Качество видео: DVDRip
Формат видео: AVI

Видео: 688х336 (2,048:1), 25 fps, XviD ~ 945 kbps avg, 0.163 bit/pixel
Аудио: 48 kHz, Dolby Digital AC3 2.0, 192 kbps

Раздача от:
Это интересно
Юрий Никулин, сыгравший в фильме «Молодо-зелено», вспоминал, что съемки проходили в атмосфере небывало энтузиазма. Режиссеру приходилось буквально разгонять актеров со съемочной площадки на отдых. Никулин придумал для своего героя забавный эпизод, но, к большому сожалению, Воинов, смеявшийся до слез, глядя на актера, эпизод выкинул, из-за того, что герой Никулина был «под мухой».
Для Юрия Никулина это уже десятая роль после небольшого эпизода в картине «Девушка с гитарой». Здесь он сыграл роль мелодраматическую, и сыграл великолепно — просто и, в то же время, очень ярко. Романтическая линия на первый взгляд выглядит чуточку странной. Николай, совершенно случайно, увидел девушку Ирину — главного архитектора молодого таёжного города Джигора — потом ещё раз, а потом неожиданно для себя оказался в центре треугольника. Если и не любовного — то близкого к нему.
MediaInfo
Общее
Полное имя : Molodo-zeleno.1962.DVDRip_[New-team]_by_AVP_Studio.avi
Формат : AVI
Формат/Информация : Audio Video Interleave
Размер файла : 744 Мбайт
Продолжительность : 1 ч. 30 м.
Общий поток : 1146 Кбит/сек
Программа кодирования : VirtualDubMod 1.5.10.3 | www.virtualdub-fr.org || (build 2550/release)
Библиотека кодирования : VirtualDubMod build 2550/release

Видео
Идентификатор : 0
Формат : MPEG-4 Visual
Профиль формата : Advanced Simple@L5
Настройки формата : BVOP1 / Custom Matrix
Параметр BVOP формата : 1
Параметр QPel формата : Нет
Параметр GMC формата : Без точки перехода
Параметр матрицы формата : Выборочная
Идентификатор кодека : XVID
Идентификатор кодека/Подсказка : XviD
Продолжительность : 1 ч. 30 м.
Битрейт : 945 Кбит/сек
Ширина : 688 пикселей
Высота : 336 пикселей
Соотношение сторон : 2,048
Частота кадров : 25,000 кадров/сек
Цветовое пространство : YUV
Субдискретизация насыщенности : 4:2:0
Битовая глубина : 8 бит
Тип развёртки : Прогрессивная
Метод сжатия : С потерями
Бит/(Пиксели*Кадры) : 0.163
Размер потока : 613 Мбайт (82%)
Библиотека кодирования : XviD 73

Аудио
Идентификатор : 1
Формат : AC-3
Формат/Информация : Audio Coding 3
Коммерческое название : Dolby Digital
Идентификатор кодека : 2000
Продолжительность : 1 ч. 30 м.
Вид битрейта : Постоянный
Битрейт : 192 Кбит/сек
Каналы : 2 канала
Channel layout : L R
Частота : 48,0 КГц
Частота кадров : 31,250 кадров/сек (1536 SPF)
Битовая глубина : 16 бит
Метод сжатия : С потерями
Размер потока : 125 Мбайт (17%)
Выравнивание : Разделение по промежуткам
Продолжительность промежутка : 40 мс. (1,00 видеокадр)
Время предзагрузки промежутка : 500 мс
Скриншоты
 

Вложения

  • 16 KB Просмотры: 0
    Личеров 0
    Сидеров 0
    Файлов 1
    Объем 744,4 MB
Ваш e-mail не будет опубликован. Он потребуется для подтверждения Вашего поста.
Оформление текста Нажмите «Ввод», чтобы отправить ответ.

Привет!

Мы группа людей которые решили помочь другим в решении их проблем, а так же пользователям с поиском самых свежих и качественных инфопродуктов. За 4 с небольшим месяца мы создали этот форум на который заходят ежедневно тысячи человек и посещаемость постоянно растёт. Мы создали панель лицензирования для защиты PHP скриптов от воровства и SEO панель для мониторинга наших сайтов и выбора верной стратегии их развития. Мы надеемся что то что мы создали пригодится Вам и возможно Вы поможете нам развиваться и совершенствоваться вместе с Вами.

Статистика форума

Темы
380.645
Сообщения
420.233
Пользователи
50.511
Новый пользователь
dmitriy3000

Приложения форума для iOS и Android


У ркн там нет власти ;)
Приватные разговоры
Помощь Пользователи
    Вы не присоединились ни к одной комнате.