За последнюю неделю опубликовано 35 новых материалов.
Инструкция новичку Путеводитель по форуму Прокси для Telegram Показать подсказки , это бомба!

Скачать Моли о смерти / Pray for Death (1985) BDRip 720p от MediaClub | P2, A бесплатно через торрент

  • Поучаствуй (в качестве покупателя) в любых пяти совместных покупках (кроме завершённых и "Моментальных") и получи группу "Новичок" навсегда -> ссылка на раздел
  • Получай до 480 рублей за каждого приглашенного пользователя!
    представляем Вам очередное расширение партнерской программы, подробности описаны тут -> ссылка
  • 90% материалов доступно к скачиванию после простой регистрации!
    Если же ты хочешь скачивать материалы без требования оставлять отзывы то получи группу "Новичок", 10 способов повышения описаны тут -> ссылка
  • К сожалению количество битых ссылок растет и мы уже не можем их оперативно восстанавливать поэтому просим помощи у каждого нашего пользователя.
    С сегодняшнего дня, за каждую восстановленную ссылку мы заплатим Вам.
    Подробнее тут -> ссылка
  • Перенесем твои заслуги с другого ресурса!
    Мы понимаем как сложно прокачивать аккаунты на форумах, вроде раскачал аккаунт, а тут появляется ресурс в 100 раз круче но тоже с системой прокачки и снова качать аккаунт...
    Предлагаем вам перенести Ваши заслуги на другом подобном ресурсе к нам.
    Подробности описаны тут -> ссылка
  • Вы можете получать по 2.5% с каждой покупки и продажи на маркете! Подробности в теме Партнёрская программа
Если Вы не хотите скачивать, Вы всегда можетепосмотретьонлайн, просто нажмите кнопку ниже :

Открыть плеер

Torrent_Bot

Торрент-Бот
Бот форума
4 Окт 2016
93
160
20



Информация о фильме
Название: Моли о смерти (Молись о смерти)
Оригинальное название: Pray for Death
Год выхода: 1985
Жанр: Боевик, драма
Режиссер: Гордон Хесслер
В ролях: Сё Косуги, Джеймс Бут, Донна Кай Бенц, Норман Бёртон, Кейн Косуги, Шейн Косуги, Мэттью Фэйзон, Парли Баэр, Роберт Ито, Майкл Константин, Алан Амиел, Вуди Уотсон, Чарльз Грюбер, Ник Хэглер

О фильме:
Мастер-ниндзя (тщательно скрывающий свое умение) поселяется в Америке, чтобы спокойно воспитывать детей вместе со своей женой, наполовину американкой. Однако его дом, семья и честь подвергается опасности со стороны местных ганстеров. Приходится перевоплощаться в незнающего жалости ниндзя и расправляться с врагами…




Страна: США
Студия: TransWorld Entertainment (TWE), Pray Films
Продолжительность: 01:34:29
Перевод: Профессиональный двухголосый, авторский

Файл
Кодек: x264
Качество: BDRip 720p
Видео: MPEG-4 AVC, 9000 Кбит/с, 1280x548, 23.976 кадр/с
Звук:
Аудио #1: Русский (AC3, 2 ch, 192 Кбит/с) / Профессиональный двухголосый (НТВ+)
Аудио #2: Русский (AC3, 2 ch, 192 Кбит/с) / Авторский одноголосый (Леонид Володарский)
Аудио #3: Английский (DTS, 2 ch, 1509 Кбит/с)

Семпл

О релизе
• За исходник Blu-ray Remux спасибо: HDClub - Spiellberg
• Сохранены оригинальные чаптеры как на Blu-ray
Log x264
raw [info]: 1280x548p 1:1 @ 24000/1001 fps (cfr)
x264 [info]: using SAR=1/1
x264 [info]: using cpu capabilities: MMX2 SSE2Fast SSSE3 SSE4.2 AVX FMA3 AVX2 LZCNT BMI2
x264 [info]: profile High, level 4.1
x264 [info]: frame I:997 Avg QP:16.96 size:126748
x264 [info]: frame P:26559 Avg QP:18.71 size: 73736
x264 [info]: frame B:108366 Avg QP:20.42 size: 39561
x264 [info]: consecutive B-frames: 1.7% 2.2% 5.7% 15.0% 15.3% 34.3% 9.3% 3.4% 3.5% 4.1% 2.5% 1.6% 1.5%
x264 [info]: mb I I16..4: 14.6% 70.9% 14.5%
x264 [info]: mb P I16..4: 1.0% 40.3% 2.9% P16..4: 17.9% 23.6% 11.5% 1.9% 0.2% skip: 0.6%
x264 [info]: mb B I16..4: 0.0% 11.0% 0.5% B16..8: 35.3% 24.3% 7.1% direct:11.0% skip:10.6% L0:45.1% L1:39.0% BI:16.0%
x264 [info]: 8x8 transform intra:92.4% inter:52.6%
x264 [info]: direct mvs spatial:98.2% temporal:1.8%
x264 [info]: coded y,uvDC,uvAC intra: 97.5% 74.5% 39.1% inter: 63.8% 39.1% 6.2%
x264 [info]: i16 v,h,dc,p: 5% 5% 39% 51%
x264 [info]: i8 v,h,dc,ddl,ddr,vr,hd,vl,hu: 9% 7% 18% 9% 12% 11% 11% 10% 12%
x264 [info]: i4 v,h,dc,ddl,ddr,vr,hd,vl,hu: 44% 5% 7% 6% 9% 8% 8% 7% 7%
x264 [info]: i8c dc,h,v,p: 31% 34% 21% 13%
x264 [info]: Weighted P-Frames: Y:15.3% UV:7.8%
x264 [info]: ref P L0: 36.4% 11.5% 20.4% 8.3% 7.4% 5.0% 4.9% 2.8% 2.9% 0.5% 0.0%
x264 [info]: ref B L0: 62.8% 15.4% 8.5% 4.9% 3.6% 3.0% 1.5% 0.4%
x264 [info]: ref B L1: 89.5% 10.5%
x264 [info]: kb/s:8991.66
encoded 135922 frames, 6.55 fps, 8991.66 kb/s
MI
General
Unique ID : 205844477672598871389943954650156858104 (0x9ADC344FDD665CE996069A2EEA017AF8)
Complete name : Pray.for.Death.1985.BDRip.720p.MediaClub.mkv
Format : Matroska
Format version : Version 4 / Version 2
File size : 7.19 GiB
Duration : 1h 34mn
Overall bit rate : 10.9 Mbps
Movie name : release MediaClub - MINION
Encoded date : UTC 2016-01-06 18:35:40
Writing application : mkvmerge v8.7.0 ('All of the above') 64bit
Writing library : libebml v1.3.3 + libmatroska v1.4.4
Attachements : cover.jpg / Log x264.log

Video
ID : 1
Format : AVC
Format/Info : Advanced Video Codec
Format profile : [email protected]
Format settings, CABAC : Yes
Format settings, ReFrames : 9 frames
Codec ID : V_MPEG4/ISO/AVC
Duration : 1h 34mn
Bit rate : 9 000 Kbps
Width : 1 280 pixels
Height : 548 pixels
Display aspect ratio : 2.35:1
Frame rate mode : Constant
Frame rate : 23.976 fps
Color space : YUV
Chroma subsampling : 4:2:0
Bit depth : 8 bits
Scan type : Progressive
Bits/(Pixel*Frame) : 0.535
Stream size : 5.79 GiB (81%)
Title : Pray for Death 1985 BDRip 720p [MediaClub - MINION]
Writing library : x264 core 148 r2638 7599210
Encoding settings : cabac=1 / ref=9 / deblock=1:-3:-3 / analyse=0x3:0x133 / me=umh / subme=11 / psy=1 / psy_rd=1.00:0.10 / mixed_ref=1 / me_range=48 / chroma_me=1 / trellis=2 / 8x8dct=1 / cqm=0 / deadzone=21,11 / fast_pskip=0 / chroma_qp_offset=-3 / threads=6 / lookahead_threads=1 / sliced_threads=0 / nr=0 / decimate=0 / interlaced=0 / bluray_compat=0 / constrained_intra=0 / bframes=12 / b_pyramid=2 / b_adapt=2 / b_bias=0 / direct=3 / weightb=1 / open_gop=0 / weightp=2 / keyint=240 / keyint_min=23 / scenecut=40 / intra_refresh=0 / rc=2pass / mbtree=0 / bitrate=9000 / ratetol=1.0 / qcomp=0.60 / qpmin=10 / qpmax=51 / qpstep=4 / cplxblur=20.0 / qblur=0.5 / ip_ratio=1.40 / pb_ratio=1.30 / aq=1:1.00
Language : English
Default : Yes
Forced : No

Audio #1
ID : 2
Format : AC-3
Format/Info : Audio Coding 3
Mode extension : CM (complete main)
Format settings, Endianness : Big
Codec ID : A_AC3
Duration : 1h 34mn
Bit rate mode : Constant
Bit rate : 192 Kbps
Channel(s) : 2 channels
Channel positions : Front: L R
Sampling rate : 48.0 KHz
Compression mode : Lossy
Stream size : 130 MiB (2%)
Title : DVO - НТВ+
Language : Russian
Default : Yes
Forced : No

Audio #2
ID : 3
Format : AC-3
Format/Info : Audio Coding 3
Mode extension : CM (complete main)
Format settings, Endianness : Big
Codec ID : A_AC3
Duration : 1h 34mn
Bit rate mode : Constant
Bit rate : 192 Kbps
Channel(s) : 2 channels
Channel positions : Front: L R
Sampling rate : 48.0 KHz
Compression mode : Lossy
Stream size : 130 MiB (2%)
Title : AVO - Леонид Володарский
Language : Russian
Default : No
Forced : No

Audio #3
ID : 4
Format : DTS
Format/Info : Digital Theater Systems
Mode : 16
Format settings, Endianness : Big
Codec ID : A_DTS
Duration : 1h 34mn
Bit rate mode : Constant
Bit rate : 1 509 Kbps
Channel(s) : 2 channels
Channel positions : Front: L R
Sampling rate : 48.0 KHz
Bit depth : 24 bits
Compression mode : Lossy
Stream size : 1 020 MiB (14%)
Language : English
Default : No
Forced : No

Menu
00:00:00.000 : en:00:00:00.000
00:05:01.592 : en:00:05:01.592
00:09:58.848 : en:00:09:58.848
00:18:27.272 : en:00:18:27.272
00:23:47.342 : en:00:23:47.342
00:25:41.081 : en:00:25:41.081
00:31:30.388 : en:00:31:30.388
00:38:08.619 : en:00:38:08.619
00:42:29.588 : en:00:42:29.588
00:50:40.412 : en:00:50:40.412
00:57:00.917 : en:00:57:00.917
01:02:40.006 : en:01:02:40.006
01:07:26.709 : en:01:07:26.709
01:12:02.693 : en:01:12:02.693
01:19:35.979 : en:01:19:35.979
01:31:15.011 : en:01:31:15.011
Скриншоты


Релиз от: |
 

Вложения

  • 19,2 KB Просмотры: 1
    Личеров 0
    Сидеров 0
    Файлов 1
    Объем 7,2 GB

Привет!

Мы группа людей которые решили помочь другим в решении их проблем, а так же пользователям с поиском самых свежих и качественных инфопродуктов. За 4 с небольшим месяца мы создали этот форум на который заходят ежедневно тысячи человек и посещаемость постоянно растёт. Мы создали панель лицензирования для защиты PHP скриптов от воровства и SEO панель для мониторинга наших сайтов и выбора верной стратегии их развития. Мы надеемся что то что мы создали пригодится Вам и возможно Вы поможете нам развиваться и совершенствоваться вместе с Вами.

Статистика форума

Темы
406.602
Сообщения
464.995
Пользователи
84.324
Новый пользователь
Lartys

Приложения форума для iOS и Android


У ркн там нет власти ;)
Приватные разговоры
Помощь Пользователи
    Вы не присоединились ни к одной комнате.