За последнюю неделю опубликовано 31 новых материалов.
Инструкция новичку Путеводитель по форуму Прокси для Telegram Показать подсказки , это бомба!

Скачать Молчание / Tystnaden (1963) BDRemux 1080p | P бесплатно через торрент

  • Поучаствуй (в качестве покупателя) в любых пяти совместных покупках (кроме завершённых и "Моментальных") и получи группу "Новичок" навсегда -> ссылка на раздел
  • Получай до 480 рублей за каждого приглашенного пользователя!
    представляем Вам очередное расширение партнерской программы, подробности описаны тут -> ссылка
  • 90% материалов доступно к скачиванию после простой регистрации!
    Если же ты хочешь скачивать материалы без требования оставлять отзывы то получи группу "Новичок", 10 способов повышения описаны тут -> ссылка
  • К сожалению количество битых ссылок растет и мы уже не можем их оперативно восстанавливать поэтому просим помощи у каждого нашего пользователя.
    С сегодняшнего дня, за каждую восстановленную ссылку мы заплатим Вам.
    Подробнее тут -> ссылка
  • Перенесем твои заслуги с другого ресурса!
    Мы понимаем как сложно прокачивать аккаунты на форумах, вроде раскачал аккаунт, а тут появляется ресурс в 100 раз круче но тоже с системой прокачки и снова качать аккаунт...
    Предлагаем вам перенести Ваши заслуги на другом подобном ресурсе к нам.
    Подробности описаны тут -> ссылка
  • Вы можете получать по 2.5% с каждой покупки и продажи на маркете! Подробности в теме Партнёрская программа
Если Вы не хотите скачивать, Вы всегда можетепосмотретьонлайн, просто нажмите кнопку ниже :

Открыть плеер

Torrent_Bot

Торрент-Бот
Бот форума
4 Окт 2016
93
155
20
Информация о фильме
Название: Молчание
Оригинальное название: Tystnaden
Год выхода: 1963
Жанр: драма
Режиссер: Ингмар Бергман
В ролях: Ингрид Тулин, Гуннель Линдблум, Ёрген Линдстрём, Хокан Янберг, Биргер Мальмстен, Лисси Аланд, Карл-Арне Бергман, Лейф Форстенберг, Эдуардо Гутьеррес, Эскиль Каллинг, Биргер Ленсандер, Кристина Улауссон, Нилс Вальдт, Улоф Видгрен

О фильме:
Две сестры, ощущающие в своих душах одиночество, пытаются скрасить свою жизнь сексуальными переживаниями. И все это происходит в молчании. Ведь оно «иногда бывает выразительнее всяких речей». А это как раз тот самый случай!



Страна: Швеция
Студия: Svensk Filmindustri (SF) AB
Продолжительность: 01:35:13
Перевод: Профессиональный (многоголосый закадровый)

Файл
Кодек: H.264
Качество: BDRemux 1080p
Видео: MPEG-4 AVC, ~ 29.6 Мбит/с, 1920х1080, 24 кадр/с
Звук:
Аудио #1: AC3, 2 ch, 224 kbps - Русский
Аудио #2: DTS-HD MA, 2 ch, 1344 kbps - Шведский
Аудио #3: AC3, 2 ch, 192 kbps - Английский
Субтитры: Русские, английские
Сэмпл:скачать

MediaInfo
General
Unique ID : 214643688718656382985440567644564270283 (0xA17ADEE9523B9531F4804F3AC44CACCB)
Complete name : H:Tystnaden.1963.BDRemux.mkv
Format : Matroska
Format version : Version 4 / Version 2
File size : 20.9 GiB
Duration : 1 h 35 min
Overall bit rate mode : Variable
Overall bit rate : 31.4 Mb/s
Movie name : Tystnaden.1963.BDRemux _Atomsk_
Encoded date : UTC 2018-09-18 09:08:19
Writing application : mkvmerge v26.0.0 ('In The Game') 64-bit
Writing library : libebml v1.3.6 + libmatroska v1.4.9

Video
ID : 1
Format : AVC
Format/Info : Advanced Video Codec
Format profile : High@L4.1
Format settings : CABAC / 4 Ref Frames
Format settings, CABAC : Yes
Format settings, ReFrames : 4 frames
Format settings, GOP : M=3, N=18
Codec ID : V_MPEG4/ISO/AVC
Duration : 1 h 35 min
Bit rate mode : Variable
Bit rate : 29.6 Mb/s
Maximum bit rate : 40.0 Mb/s
Width : 1 920 pixels
Height : 1 080 pixels
Display aspect ratio : 16:9
Frame rate mode : Constant
Frame rate : 24.000 FPS
Standard : NTSC
Color space : YUV
Chroma subsampling : 4:2:0
Bit depth : 8 bits
Scan type : Progressive
Bits/(Pixel*Frame) : 0.595
Stream size : 19.7 GiB (94%)
Title : Tystnaden.1963.BDRemux
Language : Swedish
Default : Yes
Forced : No
Color range : Limited
Color primaries : BT.709
Transfer characteristics : BT.709
Matrix coefficients : BT.709

Audio #1
ID : 2
Format : AC-3
Format/Info : Audio Coding 3
Commercial name : Dolby Digital
Codec ID : A_AC3
Duration : 1 h 35 min
Bit rate mode : Constant
Bit rate : 224 kb/s
Channel(s) : 2 channels
Channel positions : Front: L R
Sampling rate : 48.0 kHz
Frame rate : 31.250 FPS (1536 SPF)
Bit depth : 16 bits
Compression mode : Lossy
Stream size : 153 MiB (1%)
Title : AC3 2.0 @ 224 kbps - MVO
Language : Russian
Service kind : Complete Main
Default : Yes
Forced : No

Audio #2
ID : 3
Format : DTS
Format/Info : Digital Theater Systems
Format profile : MA / Core
Codec ID : A_DTS
Duration : 1 h 35 min
Bit rate mode : Variable / Constant
Bit rate : 1 344 kb/s / 1 509 kb/s
Channel(s) : 2 channels
Channel positions : Front: L R
Sampling rate : 48.0 kHz
Frame rate : 93.750 FPS (512 SPF)
Bit depth : 24 bits
Compression mode : Lossless / Lossy
Stream size : 932 MiB (4%)
Title : DTS-HD MA 2.0 @ 1344 kbps - Original
Language : Swedish
Default : No
Forced : No

Audio #3
ID : 4
Format : AC-3
Format/Info : Audio Coding 3
Commercial name : Dolby Digital
Codec ID : A_AC3
Duration : 1 h 35 min
Bit rate mode : Constant
Bit rate : 192 kb/s
Channel(s) : 2 channels
Channel positions : Front: L R
Sampling rate : 48.0 kHz
Frame rate : 31.250 FPS (1536 SPF)
Bit depth : 16 bits
Compression mode : Lossy
Stream size : 131 MiB (1%)
Title : AC3 2.0 @ 192 kbps - Dub
Language : English
Service kind : Complete Main
Default : No
Forced : No

Text #1
ID : 5
Format : UTF-8
Codec ID : S_TEXT/UTF8
Codec ID/Info : UTF-8 Plain Text
Duration : 1 h 34 min
Bit rate : 21 b/s
Count of elements : 363
Stream size : 14.9 KiB (0%)
Language : Russian
Default : No
Forced : No

Text #2
ID : 6
Format : UTF-8
Codec ID : S_TEXT/UTF8
Codec ID/Info : UTF-8 Plain Text
Duration : 1 h 33 min
Bit rate : 12 b/s
Count of elements : 325
Stream size : 8.54 KiB (0%)
Language : English
Default : No
Forced : No

Menu
00:00:00.000 : en:Chapter 1
00:11:30.375 : en:Chapter 2
00:25:18.541 : en:Chapter 3
00:34:41.666 : en:Chapter 4
00:49:37.333 : en:Chapter 5
01:00:59.208 : en:Chapter 6
01:10:54.583 : en:Chapter 7
01:22:25.000 : en:Chapter 8
Скриншоты

Релиз от: Atomsk
 

Вложения

  • 105,6 KB Просмотры: 1
    Личеров 0
    Сидеров 0
    Файлов 1
    Объем 20,9 GB

Привет!

Мы группа людей которые решили помочь другим в решении их проблем, а так же пользователям с поиском самых свежих и качественных инфопродуктов. За 4 с небольшим месяца мы создали этот форум на который заходят ежедневно тысячи человек и посещаемость постоянно растёт. Мы создали панель лицензирования для защиты PHP скриптов от воровства и SEO панель для мониторинга наших сайтов и выбора верной стратегии их развития. Мы надеемся что то что мы создали пригодится Вам и возможно Вы поможете нам развиваться и совершенствоваться вместе с Вами.

Статистика форума

Темы
406.544
Сообщения
464.666
Пользователи
83.285
Новый пользователь
Pokotigoroh

Приложения форума для iOS и Android


У ркн там нет власти ;)
Приватные разговоры
Помощь Пользователи
    Вы не присоединились ни к одной комнате.