За последнюю неделю опубликовано 0 новых материалов.
Инструкция новичку Путеводитель по форуму Прокси для Telegram Показать подсказки , это бомба!

Скачать Моя мама Снегурочка (2007) HDTVRip-AVC бесплатно через торрент

  • Поучаствуй (в качестве покупателя) в любых пяти совместных покупках (кроме завершённых и "Моментальных") и получи группу "Новичок" навсегда -> ссылка на раздел
  • Получай до 480 рублей за каждого приглашенного пользователя!
    представляем Вам очередное расширение партнерской программы, подробности описаны тут -> ссылка
  • 90% материалов доступно к скачиванию после простой регистрации!
    Если же ты хочешь скачивать материалы без требования оставлять отзывы то получи группу "Новичок", 10 способов повышения описаны тут -> ссылка
  • К сожалению количество битых ссылок растет и мы уже не можем их оперативно восстанавливать поэтому просим помощи у каждого нашего пользователя.
    С сегодняшнего дня, за каждую восстановленную ссылку мы заплатим Вам.
    Подробнее тут -> ссылка
  • Перенесем твои заслуги с другого ресурса!
    Мы понимаем как сложно прокачивать аккаунты на форумах, вроде раскачал аккаунт, а тут появляется ресурс в 100 раз круче но тоже с системой прокачки и снова качать аккаунт...
    Предлагаем вам перенести Ваши заслуги на другом подобном ресурсе к нам.
    Подробности описаны тут -> ссылка
  • Вы можете получать по 2.5% с каждой покупки и продажи на маркете! Подробности в теме Партнёрская программа
Если Вы не хотите скачивать, Вы всегда можетепосмотретьонлайн, просто нажмите кнопку ниже :

Открыть плеер

Torrent_Bot

Торрент-Бот
Бот форума
4 Окт 2016
79
196
20
Информация о фильме
Название: Моя мама Снегурочка
Год выхода: 2007
Жанр: Мелодрама
Режиссер: Роман Барабаш
В ролях: Мария Порошина, Руслан Щедрин, Татьяна Абрамова, Михаил Богдасаров, Илья Древнов, Наталья Лесниковская, Дмитрий Орлов (III), Ирина Сидорова, Владимир Ямненко, Мария Аманова, Василий Брыков, Валерия Каленникова, Ирина Курносова, Александр Пятков, Тамара Спиричева, Владимир Терещенко, Наталья Унгард, Александр Числов

О фильме:
Новый Год — время добрых чудес. В жизни и делах Лене сопутствует успех, она точно знает, чего хочет, и всегда добивается намеченной цели. В предновогоднем расписании деловой женщины нет ни одной лишней минуты и кажется, ничто не сможет заставить ее остановиться. Маленькому Степе не нужны дорогие игрушки, а нужно лишь немного любви и домашнего тепла. Отчаявшись найти понимание у взрослых, он отправляется на поиски Деда Мороза, чтобы попросить себе новую маму. Зимний город сталкивает его с Леной и женщина неожиданно ловит на себе полный надежды взгляд ребенка, увидевшего в ней добрую фею. Эта случайная встреча изменит всю их жизнь…



Страна: Россия, Украина
Студия: Стар-медиа
Продолжительность: 01:25:18
Перевод: Не требуется

Файл
Кодек: h.264
Качество: HDTVRip-AVC
Видео: MPEG-4 AVC, 3009 Кбит/с, 1024x576, 25.000 кадр/с
Звук: Русский (AC3, 6 ch, 384 Кбит/с)
Субтитры: Нет

Семпл

О релизе
Автор релиза - Silverok, первоисточник - Наш Кинороман HD
MI
Общее
Уникальный идентификатор : 46583013330025399050353623729054328941 (0x230B8FE103E0435B55F628A82856A86D)
Полное имя : D:uTorrentMoja.mama.snegurochka.2007.HDTVRip.AVC.MediaClub.mkv
Формат : Matroska
Версия формата : Version 2
Размер файла : 2,02 Гбайт
Продолжительность : 1 ч. 25 м.
Общий поток : 3390 Кбит/сек
Дата кодирования : UTC 2017-02-04T11:08:03Z
Программа кодирования : HandBrake 0.10.5 2016021100
Библиотека кодирования : Lavf55.12.0 / Lavf55.12.0

Видео
Идентификатор : 1
Формат : AVC
Формат/Информация : Advanced Video Codec
Профиль формата : [email protected]
Параметр CABAC формата : Да
Параметр ReFrames формата : 14 кадров
Идентификатор кодека : V_MPEG4/ISO/AVC
Продолжительность : 1 ч. 25 м.
Битрейт : 3009 Кбит/сек
Ширина : 1024 пикселя
Высота : 576 пикселей
Соотношение сторон : 16:9
Режим частоты кадров : Постоянный
Частота кадров : 25,000 кадров/сек
Цветовое пространство : YUV
Субдискретизация насыщенности : 4:2:0
Битовая глубина : 8 бит
Тип развёртки : Прогрессивная
Бит/(Пиксели*Кадры) : 0.204
Размер потока : 1,75 Гбайт (87%)
Библиотека кодирования : x264 core 142 r2479 dd79a61
Настройки программы : cabac=1 / ref=14 / deblock=1:-3:-3 / analyse=0x3:0x113 / me=umh / subme=10 / psy=1 / psy_rd=1.00:0.05 / mixed_ref=1 / me_range=32 / chroma_me=1 / trellis=2 / 8x8dct=1 / cqm=0 / deadzone=21,11 / fast_pskip=1 / chroma_qp_offset=-3 / threads=12 / lookahead_threads=1 / sliced_threads=0 / nr=0 / decimate=0 / interlaced=0 / bluray_compat=0 / constrained_intra=0 / bframes=16 / b_pyramid=2 / b_adapt=1 / b_bias=0 / direct=1 / weightb=1 / open_gop=0 / weightp=2 / keyint=250 / keyint_min=25 / scenecut=40 / intra_refresh=0 / rc_lookahead=40 / rc=2pass / mbtree=1 / bitrate=3009 / ratetol=1.0 / qcomp=0.60 / qpmin=0 / qpmax=69 / qpstep=4 / cplxblur=20.0 / qblur=0.5 / vbv_maxrate=62500 / vbv_bufsize=78125 / nal_hrd=none / filler=0 / ip_ratio=1.40 / aq=1:1.00
Default : Да
Forced : Нет
Цветовой диапазон : Limited
Основные цвета : BT.709
Характеристики трансфера : BT.709
Коэффициенты матрицы : BT.709

Аудио
Идентификатор : 2
Формат : AC-3
Формат/Информация : Audio Coding 3
Расширение режима : CM (complete main)
Параметр Endianness формата : Big
Идентификатор кодека : A_AC3
Продолжительность : 1 ч. 25 м.
Вид битрейта : Постоянный
Битрейт : 384 Кбит/сек
Каналы : 6 каналов
Расположение каналов : Front: L C R, Side: L R, LFE
Частота : 48,0 КГц
Частота кадров : 31,250 кадров/сек (1536 spf)
Битовая глубина : 16 бит
Метод сжатия : С потерями
Задержка видео : -5 мс.
Размер потока : 234 Мбайт (11%)
Заголовок : Surround
Default : Да
Forced : Нет
Скриншоты

Релиз от: | Silverok
 

Вложения

  • 11,2 KB Просмотры: 1
    Личеров 0
    Сидеров 0
    Файлов 1
    Объем 2 GB

Привет!

Мы группа людей которые решили помочь другим в решении их проблем, а так же пользователям с поиском самых свежих и качественных инфопродуктов. За 4 с небольшим месяца мы создали этот форум на который заходят ежедневно тысячи человек и посещаемость постоянно растёт. Мы создали панель лицензирования для защиты PHP скриптов от воровства и SEO панель для мониторинга наших сайтов и выбора верной стратегии их развития. Мы надеемся что то что мы создали пригодится Вам и возможно Вы поможете нам развиваться и совершенствоваться вместе с Вами.

Статистика форума

Темы
414.370
Сообщения
475.396
Пользователи
96.561
Новый пользователь
starushka

Приложения форума для iOS и Android


У ркн там нет власти ;)
Приватные разговоры
Помощь Пользователи
    Вы не присоединились ни к одной комнате.