За последнюю неделю опубликовано 63 новых материалов.
Инструкция новичку Путеводитель по форуму Прокси для Telegram Показать подсказки , это бомба!

Скачать Моя левая нога / My Left Foot: The Story of Christy Brown (1989) BDRip 1080p by msltel | P2 бесплатно через торрент

  • Поучаствуй (в качестве покупателя) в любых пяти совместных покупках (кроме завершённых и "Моментальных") и получи группу "Новичок" навсегда -> ссылка на раздел
  • Получай до 480 рублей за каждого приглашенного пользователя!
    представляем Вам очередное расширение партнерской программы, подробности описаны тут -> ссылка
  • 90% материалов доступно к скачиванию после простой регистрации!
    Если же ты хочешь скачивать материалы без требования оставлять отзывы то получи группу "Новичок", 10 способов повышения описаны тут -> ссылка
  • К сожалению количество битых ссылок растет и мы уже не можем их оперативно восстанавливать поэтому просим помощи у каждого нашего пользователя.
    С сегодняшнего дня, за каждую восстановленную ссылку мы заплатим Вам.
    Подробнее тут -> ссылка
  • Перенесем твои заслуги с другого ресурса!
    Мы понимаем как сложно прокачивать аккаунты на форумах, вроде раскачал аккаунт, а тут появляется ресурс в 100 раз круче но тоже с системой прокачки и снова качать аккаунт...
    Предлагаем вам перенести Ваши заслуги на другом подобном ресурсе к нам.
    Подробности описаны тут -> ссылка
  • Вы можете получать по 2.5% с каждой покупки и продажи на маркете! Подробности в теме Партнёрская программа
Если Вы не хотите скачивать, Вы всегда можетепосмотретьонлайн, просто нажмите кнопку ниже :

Открыть плеер

Torrent_Bot

Торрент-Бот
Бот форума
4 Окт 2016
92
160
20



Год выпуска: 1989
Страна: Ирландия, Великобритания
Жанр: драма, биография
Продолжительность: 01:43:18
Перевод: профессиональный двухголосый
Субтитры: русские, английские

Режиссёр: Джим Шеридан

В ролях: Дэниэл Дэй-Льюис, Бренда Фрикер, Элисон Вилан, Кёрстен Шеридан, Деклан Кроган, Инна МакЛиэм, Мари Конми, Сирил Кьюсак, Фелим Дрю, Рут МакКейб, Фиона Шоу, Рэй МакЭнэлли, Пэт Лаффан, Дерри Пауэр, Хью О’Конор, Даррен МакХью, Оуэн Шарп, Эйлин Колган, Кейт О’Конор, Том Хикки, Джули Хейл

Описание: Фильм об удивительных достижениях мужественного инвалида, ирландца Кристи Брауна. У Брауна врождённый церебральный паралич, и он считался всеми окружающими неполноценным человеком до тех пор, пока любовь матери и семьи, его личное мужество и упорство не помогли ему научиться рисовать и писать пальцами левой ноги...



Качество: BDRip 1080p Сравнение с исходником
Формат: MKV
Видео кодек: H.264
Аудио кодек: AC3, DTS
Видео: 15.7 Mбит/с, 1920x1080, 23.976 кадра/с, 0.316 bpp
Аудио 1: русский, AC3, 192 kbps, 2 ch, 48 kHz [профессиональный двухголосый]
Аудио 2: английский, DTS, 1509 kbps, 6 ch, 48 kHz [оригинал]

Имеются поименованные главы/чаптеры.

Награды
Оскар, 1990 год
Победитель (2):
Лучшая мужская роль (Дэниэл Дэй-Льюис)
Лучшая женская роль второго плана (Бренда Фрикер)

Номинации (3):
Лучший фильм
Лучший режиссер (Джим Шеридан)
Лучший адаптированный сценарий

Золотой глобус, 1990 год
Номинации (2):
Лучшая мужская роль (драма) (Дэниэл Дэй-Льюис)
Лучшая женская роль второго плана (Бренда Фрикер)

Британская академия, 1990 год
Победитель (2):
Лучшая мужская роль (Дэниэл Дэй-Льюис)
Лучшая мужская роль второго плана (Рэй МакЭнэлли)

Номинации (3):
Лучший фильм
Лучший адаптированный сценарий
Лучший грим

Европейская киноакадемия, 1989 год
Номинации (3):
Лучшая мужская роль (Дэниэл Дэй-Льюис)
Лучший режиссер (Джим Шеридан)
Лучший фильм молодого режиссера
MediaInfo
Общее
Уникальный идентификатор : 250073129489341733526314434135075169522 (0xBC225534CE7E4DD0A22F28414B01A4F2)
Полное имя : D:VideoMoja levaja noga.1989,BDRip.1080p.mkv
Формат : Matroska
Версия формата : Version 4 / Version 2
Размер файла : 12,8 Гбайт
Продолжительность : 1 ч. 43 м.
Общий поток : 17,8 Мбит/сек
Дата кодирования : UTC 2015-01-27 03:33:48
Программа кодирования : mkvmerge v7.5.0 ('Glass Culture') 64bit built on Jan 4 2015 16:48:44
Библиотека кодирования : libebml v1.3.1 + libmatroska v1.4.2
_STATISTICS_WRITING_APP : mkvmerge v7.5.0 ('Glass Culture') 64bit built on Jan 4 2015 16:48:44
_STATISTICS_WRITING_DATE_UTC : 2015-01-27 03:33:48
_STATISTICS_TAGS : BPS DURATION NUMBER_OF_FRAMES NUMBER_OF_BYTES
DURATION : 01:43:18.870000000
NUMBER_OF_FRAMES : 581144
NUMBER_OF_BYTES : 1169263856

Видео
Идентификатор : 1
Формат : AVC
Формат/Информация : Advanced Video Codec
Профиль формата : [email protected]
Параметр CABAC формата : Да
Параметр ReFrames формата : 4 кадра
Идентификатор кодека : V_MPEG4/ISO/AVC
Продолжительность : 1 ч. 43 м.
Битрейт : 15,7 Мбит/сек
Ширина : 1920 пикселей
Высота : 1080 пикселей
Соотношение сторон : 16:9
Режим частоты кадров : Постоянный
Частота кадров : 23,976 кадра/сек
Цветовое пространство : YUV
Субдискретизация насыщенности : 4:2:0
Битовая глубина : 8 бит
Тип развёртки : Прогрессивная
Бит/(Пиксели*Кадры) : 0.316
Размер потока : 11,3 Гбайт (88%)
Заголовок : BDRip -- STarankov
Библиотека кодирования : x264 core 142 r2431 ac76440
Настройки программы : cabac=1 / ref=4 / deblock=1:-1:-1 / analyse=0x3:0x113 / me=umh / subme=10 / psy=1 / psy_rd=1.00:0.15 / mixed_ref=1 / me_range=32 / chroma_me=1 / trellis=2 / 8x8dct=1 / cqm=0 / deadzone=21,11 / fast_pskip=1 / chroma_qp_offset=-3 / threads=6 / lookahead_threads=1 / sliced_threads=0 / nr=0 / decimate=1 / interlaced=0 / bluray_compat=0 / constrained_intra=0 / bframes=8 / b_pyramid=2 / b_adapt=2 / b_bias=0 / direct=3 / weightb=1 / open_gop=0 / weightp=2 / keyint=230 / keyint_min=23 / scenecut=40 / intra_refresh=0 / rc_lookahead=40 / rc=crf / mbtree=0 / crf=18.6 / qcomp=0.60 / qpmin=0 / qpmax=69 / qpstep=4 / vbv_maxrate=40000 / vbv_bufsize=50000 / crf_max=0.0 / nal_hrd=none / filler=0 / ip_ratio=1.40 / pb_ratio=1.30 / aq=1:1.00
Язык : English
Default : Да
Forced : Нет
DURATION : 01:43:18.901000000
NUMBER_OF_FRAMES : 148625
NUMBER_OF_BYTES : 12434131636
_STATISTICS_WRITING_APP : mkvmerge v7.5.0 ('Glass Culture') 64bit built on Jan 4 2015 16:48:44
_STATISTICS_WRITING_DATE_UTC : 2015-01-27 03:33:48
_STATISTICS_TAGS : BPS DURATION NUMBER_OF_FRAMES NUMBER_OF_BYTES

Аудио #1
Идентификатор : 2
Формат : AC-3
Формат/Информация : Audio Coding 3
Расширение режима : CM (complete main)
Параметр Endianness формата : Big
Идентификатор кодека : A_AC3
Продолжительность : 1 ч. 43 м.
Вид битрейта : Постоянный
Битрейт : 192 Кбит/сек
Каналы : 2 канала
Расположение каналов : Front: L R
Частота : 48,0 КГц
Битовая глубина : 16 бит
Метод сжатия : С потерями
Размер потока : 142 Мбайт (1%)
Заголовок : DVO
Язык : Russian
Default : Да
Forced : Нет

Аудио #2
Идентификатор : 3
Формат : DTS
Формат/Информация : Digital Theater Systems
Режим : 16
Параметр Endianness формата : Big
Идентификатор кодека : A_DTS
Продолжительность : 1 ч. 43 м.
Вид битрейта : Постоянный
Битрейт : 1509 Кбит/сек
Каналы : 6 каналов
Расположение каналов : Front: L C R, Side: L R, LFE
Частота : 48,0 КГц
Битовая глубина : 24 бит
Метод сжатия : С потерями
Размер потока : 1,09 Гбайт (9%)
Заголовок : Original
Язык : English
Default : Нет
Forced : Нет

Текст #1
Идентификатор : 4
Формат : UTF-8
Идентификатор кодека : S_TEXT/UTF8
Идентификатор кодека/Информация : UTF-8 Plain Text
Заголовок : русский
Язык : Russian
Default : Нет
Forced : Нет

Текст #2
Идентификатор : 5
Формат : UTF-8
Идентификатор кодека : S_TEXT/UTF8
Идентификатор кодека/Информация : UTF-8 Plain Text
Заголовок : английский
Default : Нет
Forced : Нет

Меню
00:00:00.000 : en:The Original
00:06:57.250 : en:Complications
00:13:10.999 : en:D Is for Dunce
00:21:00.926 : en:All Souls
00:27:54.590 : en:Goalie
00:31:40.899 : en:First Love
00:37:48.057 : en:Coal
00:45:56.170 : en:Look After Ma
00:51:36.302 : en:Dr. Cole
00:57:09.092 : en:Eileen
01:06:33.031 : en:Triumph and Heartbreak
01:14:22.958 : en:putty on the Inside
01:20:15.310 : en:Wake
01:27:20.318 : en:My Own Story
01:34:10.687 : en:Stay With Me
01:40:38.366 : en:End Credits
Скриншоты (увеличить)

 

Вложения

  • 33 KB Просмотры: 0
    Личеров 0
    Сидеров 0
    Файлов 1
    Объем 12,8 GB

Привет!

Мы группа людей которые решили помочь другим в решении их проблем, а так же пользователям с поиском самых свежих и качественных инфопродуктов. За 4 с небольшим месяца мы создали этот форум на который заходят ежедневно тысячи человек и посещаемость постоянно растёт. Мы создали панель лицензирования для защиты PHP скриптов от воровства и SEO панель для мониторинга наших сайтов и выбора верной стратегии их развития. Мы надеемся что то что мы создали пригодится Вам и возможно Вы поможете нам развиваться и совершенствоваться вместе с Вами.

Статистика форума

Темы
406.656
Сообщения
465.106
Пользователи
84.674
Новый пользователь
Юрий 1990

Приложения форума для iOS и Android


У ркн там нет власти ;)
Приватные разговоры
Помощь Пользователи
    Вы не присоединились ни к одной комнате.