За последнюю неделю опубликовано 98 новых материалов.
Инструкция новичку Путеводитель по форуму Прокси для Telegram Показать подсказки , это бомба!

Скачать Моя геройская академия Фильм 2: Герои восстанут / Boku no Hero Academia the Movie 2: Heroes:Rising (2019) BDRip от Deadmauvlad | D | Flarrow Films бесплатно через торрент

  • Поучаствуй (в качестве покупателя) в любых пяти совместных покупках (кроме завершённых и "Моментальных") и получи группу "Новичок" навсегда -> ссылка на раздел
  • Получай до 480 рублей за каждого приглашенного пользователя!
    представляем Вам очередное расширение партнерской программы, подробности описаны тут -> ссылка
  • 90% материалов доступно к скачиванию после простой регистрации!
    Если же ты хочешь скачивать материалы без требования оставлять отзывы то получи группу "Новичок", 10 способов повышения описаны тут -> ссылка
  • К сожалению количество битых ссылок растет и мы уже не можем их оперативно восстанавливать поэтому просим помощи у каждого нашего пользователя.
    С сегодняшнего дня, за каждую восстановленную ссылку мы заплатим Вам.
    Подробнее тут -> ссылка
  • Перенесем твои заслуги с другого ресурса!
    Мы понимаем как сложно прокачивать аккаунты на форумах, вроде раскачал аккаунт, а тут появляется ресурс в 100 раз круче но тоже с системой прокачки и снова качать аккаунт...
    Предлагаем вам перенести Ваши заслуги на другом подобном ресурсе к нам.
    Подробности описаны тут -> ссылка
  • Вы можете получать по 2.5% с каждой покупки и продажи на маркете! Подробности в теме Партнёрская программа

Torrent_Bot

Торрент-Бот
Бот форума
4 Окт 2016
79
194
20


Информация о фильме
Название: Моя геройская академия. Фильм 2: Герои восстанут
Оригинальное название: Boku no Hero Academia the Movie 2: Heroes:Rising
Год выхода: 2019
Жанр: комедия, приключения, сёнэн, школа, фантастика, фэнтези
Режиссер: Кэндзи Нагасаки
В ролях: Даики Ямасита, Юки Кадзи, Нобухико Окамото, Юити Накамура, Ёсио Иноэ, Юка Тэрасаки, Мио Имада, Киётака Фурусима, Тасуку Хатанака, Рё Хирохаси

О фильме: Эта кинолента расскажет о продолжении незабываемых приключениях школьников из академии под названием Юэй. Некоторым из них удается поступить на стажировку и стать главными свидетелями невероятных событий, таких как сражение со могущественным противником. Каждый день им приходится контролировать местность, а также другие ежедневные дела, связанные с героическими подвигами. Но самое тяжелое им еще предстоит столкнуться. Молодого Изуку Мидорию это событие обходит стороной. Во время своего поездки по территории, парень сталкивается со странным злоумышленником с Кай Чисаки, а после до ужасов напуганной девочкой Эрой. Она была дочерью злодея, к тому же она не могла предпринять что-то сразу, а мальчишка решает встать на защиту Эри, чтобы выручить его. В этот самый момент среди всех злодеев ходят слухи, что существует загадочный наркотик, который способен увеличить силу у одних, но и может полностью забрать у других. В этом криминальном мире не все так чисто. Вся торговая сеть данного препарата с каждым днем только распространяется и неизвестно, что ждет человечество в недалеком будущем. Справятся ли тогда наши главные герои со своей задачей, раскрыв тайну происхождение причуд?




Страна: Япония
Продолжительность: 01:43:59
Перевод: Дублированный | Flarrow Films
Роли Дублировали: Семён Евсиков, Ахилл Намазов, Глеб Петров, Макс Маслов, Евгений Леонов, Лена Лунина, Егор Васильев, Кирилл Патрино, Рина Чернышова, Алёна Левичева, Лилия Сафина, Андрей Маслов, Анастасия Скачкова, Денис Кузьмичёв, Рута Новикова, Ашраф Мансур и Серёжа Пасякин

Файл
Качество: BDRip
Формат видео: AVI / XviD
Видео: 720x400 (16:9), 23.976 fps, 1 610 kb/s (0.233 bit/pixel)
Аудио №1: AC-3, 48.0 kHz, 6 ch, 384 kb/s, CBR | | Flarrow Films
Субтитры: отсутствуют

MediaInfo
General
Complete name :[Deadmau- RAWS] My.Hero.Academia-Heroes.Rising.2019.BDRip.Deadmauvlad.1.46.GB.avi
Format : AVI
Format/Info : Audio Video Interleave
File size : 1.45 GiB
Duration : 1 h 43 min
Overall bit rate : 2 003 kb/s
Movie name : [Deadmau- RAWS] My.Hero.Academia-Heroes.Rising.2019.BDRip.Deadmauvlad.1.46.GB
Director : Encoder by Deadmauvlad
Genre : фэнтези, приключения
Writing application : VirtualDubMod 1.5.10.3 | www.virtualdub-fr.org || (build 2550/release)
Original source form/Name : Аниме
Copyright : Encoder by Deadmauvlad
Comment : Encoder by Deadmauvlad

Video
ID : 0
Format : MPEG-4 Visual
Format profile : Advanced [email protected]
Format settings : BVOP1 / Custom Matrix
Format settings, BVOP : 1
Format settings, QPel : No
Format settings, GMC : No warppoints
Format settings, Matrix : Custom
Codec ID : XVID
Codec ID/Hint : XviD
Duration : 1 h 43 min
Bit rate : 1 610 kb/s
Width : 720 pixels
Height : 400 pixels
Display aspect ratio : 16:9
Frame rate : 23.976 (24000/1001) FPS
Color space : YUV
Chroma subsampling : 4:2:0
Bit depth : 8 bits
Scan type : Progressive
Compression mode : Lossy
Bits/(Pixel*Frame) : 0.233
Stream size : 1.17 GiB (80%)
Writing library : XviD 73

Audio
ID : 1
Format : AC-3
Format/Info : Audio Coding 3
Commercial name : Dolby Digital
Codec ID : 2000
Duration : 1 h 43 min
Bit rate mode : Constant
Bit rate : 384 kb/s
Channel(s) : 6 channels
Channel layout : L R C LFE Ls Rs
Sampling rate : 48.0 kHz
Frame rate : 31.250 FPS (1536 SPF)
Bit depth : 16 bits
Compression mode : Lossy
Stream size : 286 MiB (19%)
Alignment : Split accross interleaves
Interleave, duration : 42 ms (1.00 video frame)
Interleave, preload duration : 500 ms

Скриншоты
Резервные Скриншоты

ЦитатаКто-то писал:
Исходник: [BDMV] Boku No Hero Academia The Movie 2 - Heroes Rising (2019) 42.0 GiB

Релиз / Автор рипа:Deadmauvlad ^_^

 

Вложения

  • 2,9 KB Просмотры: 1
    Личеров 0
    Сидеров 0
    Файлов 1
    Объем 1,5 GB

Привет!

Мы группа людей которые решили помочь другим в решении их проблем, а так же пользователям с поиском самых свежих и качественных инфопродуктов. За 4 с небольшим месяца мы создали этот форум на который заходят ежедневно тысячи человек и посещаемость постоянно растёт. Мы создали панель лицензирования для защиты PHP скриптов от воровства и SEO панель для мониторинга наших сайтов и выбора верной стратегии их развития. Мы надеемся что то что мы создали пригодится Вам и возможно Вы поможете нам развиваться и совершенствоваться вместе с Вами.

Статистика форума

Темы
414.370
Сообщения
475.396
Пользователи
96.561
Новый пользователь
starushka

Приложения форума для iOS и Android


У ркн там нет власти ;)
Приватные разговоры
Помощь Пользователи
    Вы не присоединились ни к одной комнате.