За последнюю неделю опубликовано 105 новых материалов.
Инструкция новичку Путеводитель по форуму Прокси для Telegram Показать подсказки , это бомба!

Скачать Мой сосед Тоторо / Tonari no Totoro (1988) BDRip 1080p | P бесплатно через торрент

  • Поучаствуй (в качестве покупателя) в любых пяти совместных покупках (кроме завершённых и "Моментальных") и получи группу "Новичок" навсегда -> ссылка на раздел
  • Получай до 480 рублей за каждого приглашенного пользователя!
    представляем Вам очередное расширение партнерской программы, подробности описаны тут -> ссылка
  • 90% материалов доступно к скачиванию после простой регистрации!
    Если же ты хочешь скачивать материалы без требования оставлять отзывы то получи группу "Новичок", 10 способов повышения описаны тут -> ссылка
  • К сожалению количество битых ссылок растет и мы уже не можем их оперативно восстанавливать поэтому просим помощи у каждого нашего пользователя.
    С сегодняшнего дня, за каждую восстановленную ссылку мы заплатим Вам.
    Подробнее тут -> ссылка
  • Перенесем твои заслуги с другого ресурса!
    Мы понимаем как сложно прокачивать аккаунты на форумах, вроде раскачал аккаунт, а тут появляется ресурс в 100 раз круче но тоже с системой прокачки и снова качать аккаунт...
    Предлагаем вам перенести Ваши заслуги на другом подобном ресурсе к нам.
    Подробности описаны тут -> ссылка
  • Вы можете получать по 2.5% с каждой покупки и продажи на маркете! Подробности в теме Партнёрская программа

Torrent_Bot

Торрент-Бот
Бот форума
4 Окт 2016
118
147
20
Информация о фильме
Название: Мой сосед Тоторо
Оригинальное название: Tonari no Totoro
Год выхода: 1988
Жанр: приключения, комедия, сказка, драма
Режиссер: Хаяо Миядзаки
В ролях: Тошиюки Амагаса, Пол Батчер, Пэт Кэрролл, Шерил Чейз, Шигеру Чиба, Лара Коуди, Натали Кор, Тим Дейли, Дакота Фаннинг, Эль Фаннинг

О фильме:
Япония, пятидесятые годы прошлого века. Переехав в деревню, две маленькие сестры Сацуки (старшая) и Мэй (младшая) глубоко внутри дерева обнаружили необыкновенный, чудесный мир, населённый Тоторо, очаровательными пушистыми созданиями, с которыми у девочек сразу же завязалась дружба. Одни из них большие, другие совсем крохотные, но у всех у них огромное, доброе сердце и магические способности совершать необыкновенные вещи, наподобие полётов над горами или взращивания огромного дерева за одну ночь! Но увидеть этих существ могут лишь дети, которые им приглянутся... Подружившись с сёстрами, Тоторо не только устраивают им воздушную экскурсию по своим владениям, но и помогают Мэй повидаться с лежащей в больнице мамой.


fbc620ad9b05ecdae75217815b4ecfc6.gife9d830068b36e3682caca441510fc2f2.gif

Страна: Япония
Студия: Studio Ghibli
Продолжительность: 01:26:26
Перевод: Профессиональный (многоголосый, закадровый)

Файл
Кодек: AVC MPEG-4 (x264)
Качество: BDRip 1080p
Видео: 1920x1040p (16:9), 7 837 Kbps avg, 23.976 fps, 0.164 bit/pixel
Звук: Русский: AC-3, 2 ch, 192 kbps avg (MVO с R5 от RUSCICO)
Субтитры: Русские, английские


Скриншоты
e8ee91e04d7f10861d1f0529e78221d7.jpg159a8e0df68453aae5d1755b7b74bfa6.jpgc3d6770da049ef53b1a8546a472239c2.jpgc31a56356db1df09b24c77a627233a7a.jpg

MediaInfo
General
Unique ID : 250386470566590829702623146275752528962 (0xBC5EAE1D38573CA5B89BCFBAE7AE4C42)
Complete name : D:My.Neighbor.Totoro.1988.BDRip.1080p.Rus.mkv
Format : Matroska
Format version : Version 2
File size : 4.95 GiB
Duration : 1h 26mn
Overall bit rate : 8 193 Kbps
Encoded date : UTC 2012-07-26 05:30:28
Writing application : mkvmerge v5.7.0 ('The Whirlwind') built on Jul 8 2012 20:08:51
Writing library : libebml v1.2.3 + libmatroska v1.3.0

Video
ID : 1
Format : AVC
Format/Info : Advanced Video Codec
Format profile : High@L4.1
Format settings, CABAC : Yes
Format settings, ReFrames : 5 frames
Format settings, GOP : M=7, N=26
Codec ID : V_MPEG4/ISO/AVC
Duration : 1h 26mn
Bit rate : 7 837 Kbps
Width : 1 920 pixels
Height : 1 040 pixels
Display aspect ratio : 16:9
Frame rate mode : Variable
Frame rate : 23.976 fps
Color space : YUV
Chroma subsampling : 4:2:0
Bit depth : 8 bits
Scan type : Progressive
Bits/(Pixel*Frame) : 0.164
Stream size : 4.73 GiB (96%)
Writing library : x264 core 125 r2200M 999b753
Encoding settings : cabac=1 / ref=6 / deblock=1:1:1 / analyse=0x3:0x133 / me=tesa / subme=10 / psy=1 / psy_rd=0.40:0.30 / mixed_ref=1 / me_range=16 / chroma_me=1 / trellis=2 / 8x8dct=1 / cqm=0 / deadzone=6,6 / fast_pskip=1 / chroma_qp_offset=-4 / threads=4 / lookahead_threads=1 / sliced_threads=0 / nr=0 / decimate=0 / interlaced=0 / bluray_compat=0 / constrained_intra=0 / bframes=6 / b_pyramid=1 / b_adapt=2 / b_bias=0 / direct=3 / weightb=1 / open_gop=0 / weightp=2 / keyint=230 / keyint_min=23 / scenecut=40 / intra_refresh=0 / rc_lookahead=40 / rc=crf / mbtree=1 / crf=20.0 / qcomp=0.80 / qpmin=10 / qpmax=51 / qpstep=4 / ip_ratio=1.10 / aq=1:0.60

Audio
ID : 2
Format : AC-3
Format/Info : Audio Coding 3
Mode extension : CM (complete main)
Codec ID : A_AC3
Duration : 1h 26mn
Bit rate mode : Constant
Bit rate : 192 Kbps
Channel(s) : 2 channels
Channel positions : Front: L R
Sampling rate : 48.0 KHz
Bit depth : 16 bits
Compression mode : Lossy
Stream size : 119 MiB (2%)
Title : MVO, RUSCICO
Language : Russian

Text #1
ID : 3
Format : UTF-8
Codec ID : S_TEXT/UTF8
Codec ID/Info : UTF-8 Plain Text
Language : Russian

Text #2
ID : 4
Format : UTF-8
Codec ID : S_TEXT/UTF8
Codec ID/Info : UTF-8 Plain Text
Language : English

Menu
00:00:00.000 : en:00:00:00.000
00:02:12.132 : en:00:02:12.132
00:07:27.280 : en:00:07:27.280
00:10:34.342 : en:00:10:34.342
00:15:42.066 : en:00:15:42.066
00:20:53.586 : en:00:20:53.586
00:24:55.953 : en:00:24:55.953
00:31:27.385 : en:00:31:27.385
00:35:46.561 : en:00:35:46.561
00:41:19.811 : en:00:41:19.811
00:46:18.651 : en:00:46:18.651
00:50:06.670 : en:00:50:06.670
00:56:17.040 : en:00:56:17.040
01:02:10.393 : en:01:02:10.393
01:07:08.608 : en:01:07:08.608
01:11:36.375 : en:01:11:36.375
01:17:06.622 : en:01:17:06.622
01:23:25.626 : en:01:23:25.626
 

Вложения

Привет!

Мы группа людей которые решили помочь другим в решении их проблем, а так же пользователям с поиском самых свежих и качественных инфопродуктов. За 4 с небольшим месяца мы создали этот форум на который заходят ежедневно тысячи человек и посещаемость постоянно растёт. Мы создали панель лицензирования для защиты PHP скриптов от воровства и SEO панель для мониторинга наших сайтов и выбора верной стратегии их развития. Мы надеемся что то что мы создали пригодится Вам и возможно Вы поможете нам развиваться и совершенствоваться вместе с Вами.

Статистика форума

Темы
394.378
Сообщения
446.638
Пользователи
75.262
Новый пользователь
mas90

Приложения форума для iOS и Android


У ркн там нет власти ;)
Приватные разговоры
Помощь Пользователи
    Вы не присоединились ни к одной комнате.