За последнюю неделю опубликовано 58 новых материалов.
Инструкция новичку Путеводитель по форуму Прокси для Telegram Показать подсказки , это бомба!

Скачать Мой папа – супергерой / Copperman (2019) WEB-DL 1080p | iTunes бесплатно через торрент

  • Поучаствуй (в качестве покупателя) в любых пяти совместных покупках (кроме завершённых и "Моментальных") и получи группу "Новичок" навсегда -> ссылка на раздел
  • Получай до 480 рублей за каждого приглашенного пользователя!
    представляем Вам очередное расширение партнерской программы, подробности описаны тут -> ссылка
  • 90% материалов доступно к скачиванию после простой регистрации!
    Если же ты хочешь скачивать материалы без требования оставлять отзывы то получи группу "Новичок", 10 способов повышения описаны тут -> ссылка
  • К сожалению количество битых ссылок растет и мы уже не можем их оперативно восстанавливать поэтому просим помощи у каждого нашего пользователя.
    С сегодняшнего дня, за каждую восстановленную ссылку мы заплатим Вам.
    Подробнее тут -> ссылка
  • Перенесем твои заслуги с другого ресурса!
    Мы понимаем как сложно прокачивать аккаунты на форумах, вроде раскачал аккаунт, а тут появляется ресурс в 100 раз круче но тоже с системой прокачки и снова качать аккаунт...
    Предлагаем вам перенести Ваши заслуги на другом подобном ресурсе к нам.
    Подробности описаны тут -> ссылка
  • Вы можете получать по 2.5% с каждой покупки и продажи на маркете! Подробности в теме Партнёрская программа
Если Вы не хотите скачивать, Вы всегда можетепосмотретьонлайн, просто нажмите кнопку ниже :

Открыть плеер

Torrent_Bot

Торрент-Бот
Бот форума
4 Окт 2016
102
157
20


Информация о фильме
Название: Мой папа – супергерой
Оригинальное название: Copperman
Год выхода: 2019
Цифровой релиз (в России): 07 июня 2020
Жанр: мелодрама
Режиссер: Эрос Пульелли
В ролях: Лука Арджентеро, Антония Труппо, Галатеа Ранци, Джанлука Гобби, Томмазо Раньо, Себастьян Димулеску, Анджелика Белуччи, Гуальтьеро Бурци, Луис Мольтени, Паоло Романо

О фильме:
Ансельмо — особенный. Уже взрослый мужчина, он смотрит на мир глазами ребенка и до сих пор верит, что отец, который когда-то оставил его, — супергерой. Ансельмо живет своей детской мечтой и однажды понимает: пришло время самому исполнить ее.


Страна: Италия
Продолжительность: 01:40:05
Перевод: Профессиональный (многоголосый, закадровый) | iTunes

Файл
Формат: MKV
Кодек: MPEG-4 AVC
Качество: WEB-DL 1080p
Видео: 1920x960, ~ 4 928 kb/s, 8 bits, 24.000 FPS
Аудио #1 (русский): AC-3, 384 kb/s, 6 ch (L R C LFE Ls Rs), 48.0 kHz
Аудио #2 (итальянский): AC-3, 384 kb/s, 6 ch (L R C LFE Ls Rs), 48.0 kHz
Субтитры: русские (в составе контейнера, отключаемые, srt, UTF-8) и отдельно (srt, UTF-8)
Навигация по главам: есть

Скриншоты


MediaInfo
General
Unique ID : 93300146187567146314632492484660497144 (0x4630F45C75DED260E380FAB226330AF8)
Complete name : [KORSARS]_Copperman.WEB-DL.1080p.iTunes.mkv
Format : Matroska
Format version : Version 4
File size : 3.98 GiB
Duration : 1 h 40 min
Overall bit rate : 5 698 kb/s
Movie name : [KORSARS]_Copperman.WEB-DL.1080p.iTunes
Encoded date : UTC 2020-06-08 13:33:47
Writing application : mkvmerge v47.0.0 ('Black Flag') 64-bit
Writing library : libebml v1.3.10 + libmatroska v1.5.2

Video
ID : 1
Format : AVC
Format/Info : Advanced Video Codec
Format profile : High@L4
Format settings : CABAC / 4 Ref Frames
Format settings, CABAC : Yes
Format settings, Reference : 4 frames
Codec ID : V_MPEG4/ISO/AVC
Duration : 1 h 40 min
Bit rate : 4 928 kb/s
Width : 1 920 pixels
Height : 960 pixels
Display aspect ratio : 2.000
Frame rate mode : Constant
Frame rate : 24.000 FPS
Color space : YUV
Chroma subsampling : 4:2:0
Bit depth : 8 bits
Scan type : Progressive
Bits/(Pixel*Frame) : 0.111
Stream size : 3.44 GiB (86%)
Title : [KORSARS]_Copperman.WEB-DL.1080p.iTunes
Language : English
Default : Yes
Forced : No
Color range : Limited
Color primaries : BT.709
Transfer characteristics : BT.709
Matrix coefficients : BT.709

Audio #1
ID : 3
Format : AC-3
Format/Info : Audio Coding 3
Commercial name : Dolby Digital
Codec ID : A_AC3
Duration : 1 h 40 min
Bit rate mode : Constant
Bit rate : 384 kb/s
Channel(s) : 6 channels
Channel layout : L R C LFE Ls Rs
Sampling rate : 48.0 kHz
Frame rate : 31.250 FPS (1536 SPF)
Compression mode : Lossy
Delay relative to video : -42 ms
Stream size : 275 MiB (7%)
Language : Russian
Service kind : Complete Main
Default : Yes
Forced : No

Audio #2
ID : 4
Format : AC-3
Format/Info : Audio Coding 3
Commercial name : Dolby Digital
Codec ID : A_AC3
Duration : 1 h 40 min
Bit rate mode : Constant
Bit rate : 384 kb/s
Channel(s) : 6 channels
Channel layout : L R C LFE Ls Rs
Sampling rate : 48.0 kHz
Frame rate : 31.250 FPS (1536 SPF)
Compression mode : Lossy
Delay relative to video : -42 ms
Stream size : 275 MiB (7%)
Language : Italian
Service kind : Complete Main
Default : No
Forced : No

Text
ID : 2
Format : UTF-8
Codec ID : S_TEXT/UTF8
Codec ID/Info : UTF-8 Plain Text
Duration : 1 h 35 min
Bit rate : 52 b/s
Count of elements : 807
Stream size : 36.9 KiB (0%)
Language : Russian
Default : Yes
Forced : No

Menu
00:00:00.000 : ru:Глава 1
00:08:02.625 : ru:Глава 2
00:16:09.250 : ru:Глава 3
00:24:32.250 : ru:Глава 4
00:31:58.250 : ru:Глава 5
00:40:38.000 : ru:Глава 6
00:46:51.625 : ru:Глава 7
00:54:05.541 : ru:Глава 8
01:01:57.582 : ru:Глава 9
01:07:16.665 : ru:Глава 10
01:12:00.998 : ru:Глава 11
01:20:11.039 : ru:Глава 12
01:28:19.414 : ru:Глава 13


 

Вложения

  • 21 KB Просмотры: 0
    Личеров 0
    Сидеров 0
    Файлов 2
    Объем 4 GB

Привет!

Мы группа людей которые решили помочь другим в решении их проблем, а так же пользователям с поиском самых свежих и качественных инфопродуктов. За 4 с небольшим месяца мы создали этот форум на который заходят ежедневно тысячи человек и посещаемость постоянно растёт. Мы создали панель лицензирования для защиты PHP скриптов от воровства и SEO панель для мониторинга наших сайтов и выбора верной стратегии их развития. Мы надеемся что то что мы создали пригодится Вам и возможно Вы поможете нам развиваться и совершенствоваться вместе с Вами.

Статистика форума

Темы
405.486
Сообщения
462.619
Пользователи
80.717
Новый пользователь
Снежана0005

Приложения форума для iOS и Android


У ркн там нет власти ;)
Приватные разговоры
Помощь Пользователи
    Вы не присоединились ни к одной комнате.