За последнюю неделю опубликовано 91 новых материалов.
Инструкция новичку Путеводитель по форуму Прокси для Telegram Показать подсказки , это бомба!

Скачать Мой папа – супергерой / Copperman (2019) BDRip 1080p от OlLanDGroup | P бесплатно через торрент

  • Поучаствуй (в качестве покупателя) в любых пяти совместных покупках (кроме завершённых и "Моментальных") и получи группу "Новичок" навсегда -> ссылка на раздел
  • Получай до 480 рублей за каждого приглашенного пользователя!
    представляем Вам очередное расширение партнерской программы, подробности описаны тут -> ссылка
  • 90% материалов доступно к скачиванию после простой регистрации!
    Если же ты хочешь скачивать материалы без требования оставлять отзывы то получи группу "Новичок", 10 способов повышения описаны тут -> ссылка
  • К сожалению количество битых ссылок растет и мы уже не можем их оперативно восстанавливать поэтому просим помощи у каждого нашего пользователя.
    С сегодняшнего дня, за каждую восстановленную ссылку мы заплатим Вам.
    Подробнее тут -> ссылка
  • Перенесем твои заслуги с другого ресурса!
    Мы понимаем как сложно прокачивать аккаунты на форумах, вроде раскачал аккаунт, а тут появляется ресурс в 100 раз круче но тоже с системой прокачки и снова качать аккаунт...
    Предлагаем вам перенести Ваши заслуги на другом подобном ресурсе к нам.
    Подробности описаны тут -> ссылка
  • Вы можете получать по 2.5% с каждой покупки и продажи на маркете! Подробности в теме Партнёрская программа
Если Вы не хотите скачивать, Вы всегда можетепосмотретьонлайн, просто нажмите кнопку ниже :

Открыть плеер

Torrent_Bot

Торрент-Бот
Бот форума
4 Окт 2016
102
152
20


Информация о фильме


Название: Мой папа – супергерой
Оригинальное название: Copperman
Год выпуска: 2019
Жанр:Мелодрама
Выпущено: Италия, Eliofilm, Notorious Pictures, Rai Cinema
Режиссер: Эрос Пульелли
В ролях: Лука Арджентеро, Антония Труппо, Галатеа Ранци, Джанлука Гобби, Томмазо Раньо, Себастьян Димулеску, Анджелика Белуччи, Гуальтьеро Бурци, Луис Мольтени, Паоло Романо


О фильме: Ансельмо - особенный. Уже взрослый мужчина, он смотрит на мир глазами ребенка и до сих пор верит, что отец, который когда-то оставил его, - супергерой. Ансельмо живет своей детской мечтой и однажды понимает: пришло время самому исполнить ее.






Качество: BDRip (1080p)
Видео: MPEG-4 AVC, 8530 Kбит/с, 1920x960, 24 кадр/с
Аудио: Русский (AC3, 6 ch, 640 Кбит/с), (DTS, 6 ch, 1509 Кбит/с), итальянский (DTS, 6 ch, 1509 Кбит/с)
Размер: 8.53 ГБ
Продолжительность: 01:40:07
Перевод: Профессиональный многоголосый
Субтитры: Русские, итальянские


За исходник, большое спасибо BLUEBIRD
Сохранены оригинальные чаптеры как на Blu-Ray.
Озвучивание - Профессиональное многоголосое (iTunes*)
* Звук получен наложением выделенных голосов на центральный канал оригинальной аудио.



x264
x264 [info]: frame I:894 Avg QP:13.97 size:251097
x264 [info]: frame P:37605 Avg QP:16.84 size: 86014
x264 [info]: frame B:105683 Avg QP:18.03 size: 27864
x264 [info]: consecutive B-frames: 4.3% 5.4% 13.4% 24.0% 18.6% 27.5% 4.8% 0.9% 0.5% 0.3% 0.4%
x264 [info]: mb I I16..4: 22.1% 44.9% 33.0%
x264 [info]: mb P I16..4: 6.2% 17.9% 4.0% P16..4: 27.9% 28.3% 8.6% 1.4% 0.1% skip: 5.6%
x264 [info]: mb B I16..4: 2.0% 2.7% 0.7% B16..8: 31.4% 15.7% 2.4% direct: 7.9% skip:37.1% L0:40.0% L1:45.2% BI:14.8%
x264 [info]: 8x8 transform intra:58.2% inter:51.8%
x264 [info]: direct mvs spatial:99.1% temporal:0.9%
x264 [info]: coded y,uvDC,uvAC intra: 82.1% 88.2% 75.2% inter: 26.6% 30.2% 16.5%
x264 [info]: i16 v,h,dc,p: 14% 13% 34% 39%
x264 [info]: i8 v,h,dc,ddl,ddr,vr,hd,vl,hu: 10% 11% 18% 8% 9% 10% 10% 11% 13%
x264 [info]: i4 v,h,dc,ddl,ddr,vr,hd,vl,hu: 15% 12% 30% 5% 8% 7% 7% 6% 9%
x264 [info]: i8c dc,h,v,p: 48% 22% 18% 12%
x264 [info]: Weighted P-Frames: Y:1.9% UV:1.2%
x264 [info]: ref P L0: 57.7% 10.8% 21.7% 8.4% 1.3% 0.0%
x264 [info]: ref B L0: 88.8% 9.1% 2.0%
x264 [info]: ref B L1: 94.1% 5.9%
x264 [info]: kb/s:8527.57
Инфо-файл
Общее
Уникальный идентификатор : 236818564113507432357966041323577520139 (0xB22998ADC16B8905A6DC3E3089A3B00B)
Полное имя : D:ЗагрузкиCopperman.2019.x264.BDRip.(1080p).OlLanDGroup.mkv
Формат : Matroska
Версия формата : Version 4 / Version 2
Размер файла : 8,53 Гбайт
Продолжительность : 1 ч. 40 м.
Общий поток : 12,2 Мбит/сек
Название фильма : Мой папа - супергерой.2019.Rip by: ollan
Дата кодирования : UTC 2020-06-14 08:57:35
Программа кодирования : mkvmerge v6.5.0 ('Isn't she lovely') built on Oct 20 2013 12:50:05
Библиотека кодирования : libebml v1.3.0 + libmatroska v1.4.1
Обложка : Yes
Attachments : Cover - Copperman.png

Видео
Идентификатор : 1
Формат : AVC
Формат/Информация : Advanced Video Codec
Профиль формата : High@L4.1
Настройки формата : CABAC / 4 Ref Frames
Параметр CABAC формата : Да
Параметр ReFrames формата : 4 кадра
Идентификатор кодека : V_MPEG4/ISO/AVC
Продолжительность : 1 ч. 40 м.
Битрейт : 8530 Кбит/сек
Ширина : 1920 пикселей
Высота : 960 пикселей
Соотношение сторон : 2,000
Режим частоты кадров : Постоянный
Частота кадров : 24,000 кадра/сек
Цветовое пространство : YUV
Субдискретизация насыщенности : 4:2:0
Битовая глубина : 8 бит
Тип развёртки : Прогрессивная
Бит/(Пиксели*Кадры) : 0.193
Размер потока : 5,80 Гбайт (68%)
Библиотека кодирования : x264 core 146 r2538 121396c
Настройки программы : cabac=1 / ref=4 / deblock=1:-3:-3 / analyse=0x3:0x133 / me=umh / subme=11 / psy=1 / psy_rd=0.95:0.05 / mixed_ref=1 / me_range=64 / chroma_me=1 / trellis=2 / 8x8dct=1 / cqm=0 / deadzone=21,11 / fast_pskip=0 / chroma_qp_offset=-3 / threads=12 / lookahead_threads=3 / sliced_threads=0 / nr=0 / decimate=0 / interlaced=0 / bluray_compat=0 / constrained_intra=0 / bframes=10 / b_pyramid=2 / b_adapt=2 / b_bias=0 / direct=3 / weightb=1 / open_gop=0 / weightp=2 / keyint=240 / keyint_min=23 / scenecut=40 / intra_refresh=0 / rc_lookahead=40 / rc=2pass / mbtree=0 / bitrate=8530 / ratetol=1.0 / qcomp=0.60 / qpmin=0 / qpmax=69 / qpstep=4 / cplxblur=20.0 / qblur=0.5 / vbv_maxrate=50000 / vbv_bufsize=62500 / nal_hrd=none / filler=0 / ip_ratio=1.40 / pb_ratio=1.30 / aq=1:1.00
Язык : English
Default : Да
Forced : Нет

Аудио #1
Идентификатор : 2
Формат : AC-3
Формат/Информация : Audio Coding 3
Идентификатор кодека : A_AC3
Продолжительность : 1 ч. 40 м.
Вид битрейта : Постоянный
Битрейт : 640 Кбит/сек
Каналы : 6 каналов
Расположение каналов : Front: L C R, Side: L R, LFE
Частота : 48,0 КГц
Частота кадров : 31,250 кадров/сек (1536 SPF)
Битовая глубина : 16 бит
Метод сжатия : С потерями
Размер потока : 458 Мбайт (5%)
Заголовок : Профессиональный многоголосый
Язык : Russian
Service kind : Complete Main
Default : Да
Forced : Нет

Аудио #2
Идентификатор : 3
Формат : DTS
Формат/Информация : Digital Theater Systems
Идентификатор кодека : A_DTS
Продолжительность : 1 ч. 40 м.
Вид битрейта : Постоянный
Битрейт : 1509 Кбит/сек
Каналы : 6 каналов
Расположение каналов : Front: L C R, Side: L R, LFE
Частота : 48,0 КГц
Частота кадров : 93,750 кадра/сек (512 SPF)
Битовая глубина : 24 бит
Метод сжатия : С потерями
Размер потока : 1,06 Гбайт (12%)
Заголовок : Профессиональный многоголосый
Язык : Russian
Default : Нет
Forced : Нет

Аудио #3
Идентификатор : 4
Формат : DTS
Формат/Информация : Digital Theater Systems
Идентификатор кодека : A_DTS
Продолжительность : 1 ч. 40 м.
Вид битрейта : Постоянный
Битрейт : 1509 Кбит/сек
Каналы : 6 каналов
Расположение каналов : Front: L C R, Side: L R, LFE
Частота : 48,0 КГц
Частота кадров : 93,750 кадра/сек (512 SPF)
Битовая глубина : 24 бит
Метод сжатия : С потерями
Размер потока : 1,06 Гбайт (12%)
Язык : Italian
Default : Нет
Forced : Нет

Текст #1
Идентификатор : 5
Формат : UTF-8
Идентификатор кодека : S_TEXT/UTF8
Идентификатор кодека/Информация : UTF-8 Plain Text
Заголовок : Full
Язык : Russian
Default : Нет
Forced : Нет

Текст #2
Идентификатор : 6
Формат : UTF-8
Идентификатор кодека : S_TEXT/UTF8
Идентификатор кодека/Информация : UTF-8 Plain Text
Заголовок : Full
Язык : Italian
Default : Нет
Forced : Нет

Меню
00:00:00.000 : it:Chapter 01
00:03:52.082 : it:Chapter 02
00:08:54.500 : it:Chapter 03
00:13:57.583 : it:Chapter 04
00:18:30.041 : it:Chapter 05
00:24:00.791 : it:Chapter 06
00:28:25.583 : it:Chapter 07
00:33:18.416 : it:Chapter 08
00:38:18.666 : it:Chapter 09
00:44:12.416 : it:Chapter 10
00:47:30.791 : it:Chapter 11
00:53:27.916 : it:Chapter 12
00:58:32.000 : it:Chapter 13
01:04:31.625 : it:Chapter 14
01:09:08.457 : it:Chapter 15
01:14:36.832 : it:Chapter 16
01:19:37.166 : it:Chapter 17
01:24:32.291 : it:Chapter 18
01:29:02.457 : it:Chapter 19
01:35:59.125 : it:Chapter 20
Скриншоты


Релиз от: Rip by:
 

Вложения

  • 22,3 KB Просмотры: 0
    Личеров 0
    Сидеров 0
    Файлов 1
    Объем 8,5 GB

Привет!

Мы группа людей которые решили помочь другим в решении их проблем, а так же пользователям с поиском самых свежих и качественных инфопродуктов. За 4 с небольшим месяца мы создали этот форум на который заходят ежедневно тысячи человек и посещаемость постоянно растёт. Мы создали панель лицензирования для защиты PHP скриптов от воровства и SEO панель для мониторинга наших сайтов и выбора верной стратегии их развития. Мы надеемся что то что мы создали пригодится Вам и возможно Вы поможете нам развиваться и совершенствоваться вместе с Вами.

Статистика форума

Темы
404.589
Сообщения
461.467
Пользователи
80.284
Новый пользователь
Zuhra

Приложения форума для iOS и Android


У ркн там нет власти ;)
Приватные разговоры
Помощь Пользователи
    Вы не присоединились ни к одной комнате.