За последнюю неделю опубликовано 30 новых материалов.
Инструкция новичку Путеводитель по форуму Прокси для Telegram Показать подсказки , это бомба!

Скачать Мёртвые земли / The Dead Lands (2014) HDRip-AVC от ExKinoRay | L бесплатно через торрент

  • Поучаствуй (в качестве покупателя) в любых пяти совместных покупках (кроме завершённых и "Моментальных") и получи группу "Новичок" навсегда -> ссылка на раздел
  • Получай до 480 рублей за каждого приглашенного пользователя!
    представляем Вам очередное расширение партнерской программы, подробности описаны тут -> ссылка
  • 90% материалов доступно к скачиванию после простой регистрации!
    Если же ты хочешь скачивать материалы без требования оставлять отзывы то получи группу "Новичок", 10 способов повышения описаны тут -> ссылка
  • К сожалению количество битых ссылок растет и мы уже не можем их оперативно восстанавливать поэтому просим помощи у каждого нашего пользователя.
    С сегодняшнего дня, за каждую восстановленную ссылку мы заплатим Вам.
    Подробнее тут -> ссылка
  • Перенесем твои заслуги с другого ресурса!
    Мы понимаем как сложно прокачивать аккаунты на форумах, вроде раскачал аккаунт, а тут появляется ресурс в 100 раз круче но тоже с системой прокачки и снова качать аккаунт...
    Предлагаем вам перенести Ваши заслуги на другом подобном ресурсе к нам.
    Подробности описаны тут -> ссылка
  • Вы можете получать по 2.5% с каждой покупки и продажи на маркете! Подробности в теме Партнёрская программа
Если Вы не хотите скачивать, Вы всегда можетепосмотретьонлайн, просто нажмите кнопку ниже :

Открыть плеер

Torrent_Bot

Торрент-Бот
Бот форума
4 Окт 2016
93
160
20


Название: Мёртвые земли
Оригинальное название: The Dead Lands
Год выпуска: 2014
Жанр: Боевик, приключения
Режиссер: Тоа Фрейзер
В ролях: Джеймс Роллестон, Лоуренс Макор, Ксавьер Хоран, Джордж Хинар, Рина Оуэн, Пена Хема Тейлор

О фильме:
Молодому парню выпала судьба ступить на путь воина и для этого необходимо было научиться владению оружием и боевыми искусствами. Он обязан был отомстить тем, кто убил его семью. Парню стали доступны секретные знания племени Маори, благодаря которым он сможет стать лучшим воином. Это был его святой долг. Вокруг постоянно происходили смертельные схватки. Не закрепленные земли были лакомым куском и провоцировали нападения. Выжить удавалось не всем. И порой спасались не самые лучшие люди, но мир был жесток и функционировал по условиям животного мира. Так после кровавых схваток появлялись мертвые земли, где долго никто не жил. Проходило время и на этих землях снова появлялись люди, все еще не защищенные от набегов чужаков. Боевик погрузит зрителя в мир, ушедший в историю, но все равно имеющий некоторые сходства с современным устройством жизни.



Страна: Новая Зеландия, Великобритания
Студия: General Film Corporation
Продолжительность: 01:47:14
Перевод: Любительский многоголосый | BaibaKo

Файл
Формат: MKV
Качество: HDRip-AVC
Видео: MPEG-4 AVC, 764x320, - 895 Кбит/с
Аудио: AAC-HE, 2 ch, - 76 Кбит/с
Субтитры: Нет

MI
Общее
Уникальный идентификатор : 259711686089945765064183579246670020991 (0xC362A6BC90F4F99240208797C006817F)
Полное имя : D:MOVIESThe.Dead.Lands.2014.HDRip-AVC.ExKinoRay.mkv
Формат : Matroska
Версия формата : Version 4
Размер файла : 746 Мбайт
Продолжительность : 1 ч. 47 м.
Общий поток : 972 Кбит/сек
Дата кодирования : UTC 2020-06-11 14:32:36
Программа кодирования : mkvmerge v45.0.0 ('Heaven in Pennies') 64-bit
Библиотека кодирования : libebml v1.3.10 + libmatroska v1.5.2

Видео
Идентификатор : 1
Формат : AVC
Формат/Информация : Advanced Video Codec
Профиль формата : [email protected]
Настройки формата : CABAC / 11 Ref Frames
Параметр CABAC формата : Да
Параметр RefFrames формата : 11 кадров
Идентификатор кодека : V_MPEG4/ISO/AVC
Продолжительность : 1 ч. 47 м.
Битрейт : 895 Кбит/сек
Ширина : 764 пикселя
Высота : 320 пикселей
Соотношение сторон : 2,40:1
Режим частоты кадров : Постоянный
Частота кадров : 23,976 (24000/1001) кадра/сек
Цветовое пространство : YUV
Субдискретизация насыщенности : 4:2:0
Битовая глубина : 8 бит
Тип развёртки : Прогрессивная
Бит/(Пиксели*Кадры) : 0.153
Размер потока : 686 Мбайт (92%)
Библиотека кодирования : x264 core 160 r3000 33f9e14
Настройки программы : cabac=1 / ref=11 / deblock=1:-3:-3 / analyse=0x3:0x133 / me=umh / subme=10 / psy=1 / psy_rd=1.05:0.10 / mixed_ref=1 / me_range=32 / chroma_me=1 / trellis=2 / 8x8dct=1 / cqm=0 / deadzone=21,11 / fast_pskip=0 / chroma_qp_offset=-3 / threads=6 / lookahead_threads=1 / sliced_threads=0 / nr=0 / decimate=0 / interlaced=0 / bluray_compat=0 / constrained_intra=0 / bframes=12 / b_pyramid=2 / b_adapt=2 / b_bias=0 / direct=3 / weightb=1 / open_gop=0 / weightp=2 / keyint=240 / keyint_min=23 / scenecut=40 / intra_refresh=0 / rc_lookahead=40 / rc=2pass / mbtree=1 / bitrate=895 / ratetol=1.0 / qcomp=0.60 / qpmin=0 / qpmax=69 / qpstep=4 / cplxblur=20.0 / qblur=0.5 / ip_ratio=1.40 / aq=3:1.00
Default : Да
Forced : Нет
Цветовой диапазон : Limited
Основные цвета : BT.709
Характеристики трансфера : BT.709
Коэффициенты матрицы : BT.709

Аудио
Идентификатор : 2
Формат : AAC LC SBR
Формат/Информация : Advanced Audio Codec Low Complexity with Spectral Band Replication
Коммерческое название : HE-AAC
Настройки формата : Explicit
Идентификатор кодека : A_AAC-2
Продолжительность : 1 ч. 47 м.
Битрейт : 76,0 Кбит/сек
Каналы : 2 канала
Channel layout : L R
Частота : 48,0 КГц
Частота кадров : 23,438 кадра/сек (2048 SPF)
Метод сжатия : С потерями
Задержка видео : 31 мс.
Размер потока : 58,3 Мбайт (8%)
Язык : Russian
Default : Да
Forced : Нет

Меню
00:00:00.000 : en:00:00:00.000
00:12:53.856 : en:00:12:53.856
00:19:43.974 : en:00:19:43.974
00:27:59.261 : en:00:27:59.261
00:38:03.156 : en:00:38:03.156
00:45:50.247 : en:00:45:50.247
00:53:17.694 : en:00:53:17.694
01:00:31.127 : en:01:00:31.127
01:07:23.915 : en:01:07:23.915
01:20:29.950 : en:01:20:29.950
01:28:27.719 : en:01:28:27.719
01:41:40.761 : en:01:41:40.761
Скриншоты

 

Вложения

  • 15,7 KB Просмотры: 0
    Личеров 0
    Сидеров 0
    Файлов 1
    Объем 745,8 MB

Привет!

Мы группа людей которые решили помочь другим в решении их проблем, а так же пользователям с поиском самых свежих и качественных инфопродуктов. За 4 с небольшим месяца мы создали этот форум на который заходят ежедневно тысячи человек и посещаемость постоянно растёт. Мы создали панель лицензирования для защиты PHP скриптов от воровства и SEO панель для мониторинга наших сайтов и выбора верной стратегии их развития. Мы надеемся что то что мы создали пригодится Вам и возможно Вы поможете нам развиваться и совершенствоваться вместе с Вами.

Статистика форума

Темы
406.605
Сообщения
465.025
Пользователи
84.383
Новый пользователь
wazice

Приложения форума для iOS и Android


У ркн там нет власти ;)
Приватные разговоры
Помощь Пользователи
    Вы не присоединились ни к одной комнате.