За последнюю неделю опубликовано 82 новых материалов.
Инструкция новичку Путеводитель по форуму Прокси для Telegram Показать подсказки , это бомба!

Скачать Мистериум: Антология (2013-2018) BDRip-AVC от OllanDGroup | P, A, L бесплатно через торрент

  • Поучаствуй (в качестве покупателя) в любых пяти совместных покупках (кроме завершённых и "Моментальных") и получи группу "Новичок" навсегда -> ссылка на раздел
  • Получай до 480 рублей за каждого приглашенного пользователя!
    представляем Вам очередное расширение партнерской программы, подробности описаны тут -> ссылка
  • 90% материалов доступно к скачиванию после простой регистрации!
    Если же ты хочешь скачивать материалы без требования оставлять отзывы то получи группу "Новичок", 10 способов повышения описаны тут -> ссылка
  • К сожалению количество битых ссылок растет и мы уже не можем их оперативно восстанавливать поэтому просим помощи у каждого нашего пользователя.
    С сегодняшнего дня, за каждую восстановленную ссылку мы заплатим Вам.
    Подробнее тут -> ссылка
  • Перенесем твои заслуги с другого ресурса!
    Мы понимаем как сложно прокачивать аккаунты на форумах, вроде раскачал аккаунт, а тут появляется ресурс в 100 раз круче но тоже с системой прокачки и снова качать аккаунт...
    Предлагаем вам перенести Ваши заслуги на другом подобном ресурсе к нам.
    Подробности описаны тут -> ссылка
  • Вы можете получать по 2.5% с каждой покупки и продажи на маркете! Подробности в теме Партнёрская программа
Если Вы не хотите скачивать, Вы всегда можетепосмотретьонлайн, просто нажмите кнопку ниже :

Открыть плеер

Torrent_Bot

Торрент-Бот
Бот форума
4 Окт 2016
104
152
20





Год выпуска: 2013-2018
Страна: Дания, Германия, Швеция, Норвегия
Производство: Film i Väst, Zentropa Entertainments
Жанр: Триллер, криминал, детектив, экранизация
Продолжительность:: 01:36:31 | 01:59:40 | 01:51:29 | 01:57:54
Мистериум. Начало / Kvinden i buret (2013)

Мистериум. Начало / Kvinden i buret
«Intet er glemt for altid»



Год выпуска: 2013
Страна: Дания, Германия, Швеция, Норвегия
Производство: Film i Väst, Zentropa Entertainments
Жанр: Триллер, криминал, детектив


Режиссёр: Миккель Нёргор
В ролях: Николай Ли Каас, Фарес Фарес, Пер Шил Крюгер, Троэльс Любю, Ойвинд Б. Фабрициус Холм, Сёрен Пильмарк, Дивья Дас, Анна Берског Хаугер, Соня Рихтер, Расмус Ботофт


Перевод: Профессиональный многоголосый | [Позитив по заказу Русского Репортажа]
Субтитры: Русские (полные)
Реклама: Отсутствует

Описание: Детективы Карл Мерке и Аса работают в Департаменте Q, занимающемся «глухарями». Взявшись за дело пятилетней давности об исчезновении женщины по имени Мерет, они внезапно выходят на след маньяка-психопата. Но преследуя его по всей стране, всё равно на шаг отстают.




Качество: BDRip-AVC | |
Продолжительность: 01:36:31

Формат: MKV
Видео кодек: MPEG-4 AVC
Аудио кодек: AC3
Видео: 1168x490 (2.40:1), 24,000 fps, x264 ~2 780 kbps avg, 0.202 bit/pixel
Аудио #1: 48 kHz, AC3 Dolby Digital, 3/2 (L,C,R,l,r) + LFE ch, ~448.00 kbps avg | RUS (Позитив)


MediaInfo
Общее
Уникальный идентификатор : 118037334298492628384625009327066762033 (0x58CD29E62741A2B40BFFD2961B9ECB31)
Полное имя : F:Misterium.2013-2018.BDRip(AVC).OllanDGroupKvinden.i.Buret.2013.BDRip(AVC).OllanDGroup.mkv
Формат : Matroska
Версия формата : Version 4 / Version 2
Размер файла : 2,18 Гбайт
Продолжительность : 1 ч. 36 м.
Общий поток : 3226 Кбит/сек
Название фильма : Kvinden i Buret #TorpedoUK#
Дата кодирования : UTC 2019-05-30 11:36:40
Программа кодирования : mkvmerge v29.0.0 ('Like It Or Not') 64-bit
Библиотека кодирования : libebml v1.3.6 + libmatroska v1.4.9
Attachments : 9.jpg / 9.jpg

Видео
Идентификатор : 1
Формат : AVC
Формат/Информация : Advanced Video Codec
Профиль формата : High@L4.1
Параметр CABAC формата : Да
Параметр ReFrames формата : 10 кадров
Идентификатор кодека : V_MPEG4/ISO/AVC
Продолжительность : 1 ч. 36 м.
Битрейт : 2780 Кбит/сек
Ширина : 1168 пикселей
Высота : 490 пикселей
Соотношение сторон : 2,40:1
Режим частоты кадров : Постоянный
Частота кадров : 24,000 кадра/сек
Цветовое пространство : YUV
Субдискретизация насыщенности : 4:2:0
Битовая глубина : 8 бит
Тип развёртки : Прогрессивная
Бит/(Пиксели*Кадры) : 0.202
Размер потока : 1,87 Гбайт (86%)
Библиотека кодирования : x264 core 146 r2538 121396c
Настройки программы : cabac=1 / ref=10 / deblock=1:-3:-3 / analyse=0x3:0x113 / me=umh / subme=11 / psy=1 / psy_rd=1.00:0.03 / mixed_ref=1 / me_range=48 / chroma_me=1 / trellis=2 / 8x8dct=1 / cqm=0 / deadzone=21,11 / fast_pskip=1 / chroma_qp_offset=-3 / threads=6 / lookahead_threads=1 / sliced_threads=0 / nr=0 / decimate=1 / interlaced=0 / bluray_compat=0 / constrained_intra=0 / bframes=11 / b_pyramid=2 / b_adapt=2 / b_bias=0 / direct=3 / weightb=1 / open_gop=0 / weightp=2 / keyint=240 / keyint_min=24 / scenecut=40 / intra_refresh=0 / rc_lookahead=40 / rc=2pass / mbtree=0 / bitrate=2780 / ratetol=1.0 / qcomp=0.60 / qpmin=0 / qpmax=69 / qpstep=4 / cplxblur=20.0 / qblur=0.5 / vbv_maxrate=50000 / vbv_bufsize=62500 / nal_hrd=none / filler=0 / ip_ratio=1.40 / pb_ratio=1.30 / aq=1:1.00
Default : Да
Forced : Нет

Аудио
Идентификатор : 2
Формат : AC-3
Формат/Информация : Audio Coding 3
Расширение режима : CM (complete main)
Параметр Endianness формата : Big
Идентификатор кодека : A_AC3
Продолжительность : 1 ч. 36 м.
Вид битрейта : Постоянный
Битрейт : 448 Кбит/сек
Каналы : 6 каналов
Расположение каналов : Front: L C R, Side: L R, LFE
Частота : 48,0 КГц
Частота кадров : 31,250 кадров/сек (1536 spf)
Битовая глубина : 16 бит
Метод сжатия : С потерями
Размер потока : 309 Мбайт (14%)
Заголовок : MVO [License]
Язык : Russian
Default : Да
Forced : Нет

Текст
Идентификатор : 3
Формат : UTF-8
Идентификатор кодека : S_TEXT/UTF8
Идентификатор кодека/Информация : UTF-8 Plain Text
Продолжительность : 1 ч. 32 м.
Битрейт : 63 бит/сек
Count of elements : 709
Размер потока : 43,3 Кбайт (0%)
Заголовок : Full
Язык : Russian
Default : Нет
Forced : Нет

Меню
00:00:00.000 : en:00:00:00.000
00:10:00.000 : en:00:10:00.000
00:19:59.542 : en:00:19:59.542
00:29:59.708 : en:00:29:59.708
00:39:59.750 : en:00:39:59.750
00:49:59.833 : en:00:49:59.833
00:59:59.625 : en:00:59:59.625
01:09:59.667 : en:01:09:59.667
01:19:59.708 : en:01:19:59.708
01:29:59.750 : en:01:29:59.750
Мистериум: Охотники на фазанов / Fasandræberne (2014)

Мистериум: Охотники на фазанов / Fasandræberne




Год выпуска: 2014
Страна: Дания, Германия, Швеция
Производство: Film i Väst, Zentropa Entertainments
Жанр: Триллер, криминал, детектив


Режиссёр: Миккель Нёргор
В ролях: Николай Ли Каас, Фарес Фарес, Йохан Филип Асбек, Давид Денсик, Даница Чурчич, Сара-Софи Бусснина, Джохэнн Луиз Шмидт, Марко Ильсё, Беате Билле, Питер Кристофферсен


Перевод: Профессиональный многоголосый | [iTunes], авторский | [Алексеев]
Субтитры: Русские (полные)
Реклама: Отсутствует

Описание: В 1994 году двое детей-близнецов были найдены зверски убитыми в летнем загородном доме. Ряд фактов указывал на причастность к делу группы студентов, но расследование было прекращено после того, как местный отшельник признал себя виновным в этом инциденте. 20 лет спустя это дело попадает на стол Карла Мёрка, который начинает подозревать, что в нём что-то не так.




Качество: BDRip-AVC | |
Продолжительность: 01:59:40

Формат: MKV
Видео кодек: MPEG-4 AVC
Аудио кодек: AC3
Видео: 1168x496 (2.35:1), 24,000 fps, x264 ~2 156 kbps avg, 0.155 bit/pixel
Аудио #1: 48 kHz, AC3 Dolby Digital, 2 (L,R) ch, ~192.00 kbps avg | RUS (iTunes)
Аудио #2: 48 kHz, AC3 Dolby Digital, 3/2 (L,C,R,l,r) + LFE ch, ~256.00 kbps avg | RUS (Алексеев)


MediaInfo
Общее
Уникальный идентификатор : 217305011154147903740706330430918801133 (0xA37B6C3CEE12930C9D6BCDAEC366B6ED)
Полное имя : F:Misterium.2013-2018.BDRip(AVC).OllanDGroupFasandræberne.2014.BDRip(AVC).OlLanDGroup.mkv
Формат : Matroska
Версия формата : Version 4 / Version 2
Размер файла : 2,18 Гбайт
Продолжительность : 1 ч. 59 м.
Общий поток : 2602 Кбит/сек
Название фильма : Fasandræberne.2014 #TorpedoUK#
Дата кодирования : UTC 2019-05-31 16:07:10
Программа кодирования : mkvmerge v29.0.0 ('Like It Or Not') 64-bit
Библиотека кодирования : libebml v1.3.6 + libmatroska v1.4.9

Видео
Идентификатор : 1
Формат : AVC
Формат/Информация : Advanced Video Codec
Профиль формата : High@L4.1
Параметр CABAC формата : Да
Параметр ReFrames формата : 10 кадров
Идентификатор кодека : V_MPEG4/ISO/AVC
Продолжительность : 1 ч. 59 м.
Битрейт : 2156 Кбит/сек
Ширина : 1168 пикселей
Высота : 496 пикселей
Соотношение сторон : 2,35:1
Режим частоты кадров : Постоянный
Частота кадров : 24,000 кадра/сек
Цветовое пространство : YUV
Субдискретизация насыщенности : 4:2:0
Битовая глубина : 8 бит
Тип развёртки : Прогрессивная
Бит/(Пиксели*Кадры) : 0.155
Размер потока : 1,80 Гбайт (83%)
Библиотека кодирования : x264 core 146 r2538 121396c
Настройки программы : cabac=1 / ref=10 / deblock=1:-3:-3 / analyse=0x3:0x113 / me=umh / subme=11 / psy=1 / psy_rd=1.00:0.03 / mixed_ref=1 / me_range=48 / chroma_me=1 / trellis=2 / 8x8dct=1 / cqm=0 / deadzone=21,11 / fast_pskip=1 / chroma_qp_offset=-3 / threads=6 / lookahead_threads=1 / sliced_threads=0 / nr=0 / decimate=1 / interlaced=0 / bluray_compat=0 / constrained_intra=0 / bframes=11 / b_pyramid=2 / b_adapt=2 / b_bias=0 / direct=3 / weightb=1 / open_gop=0 / weightp=2 / keyint=240 / keyint_min=24 / scenecut=40 / intra_refresh=0 / rc_lookahead=40 / rc=2pass / mbtree=0 / bitrate=2156 / ratetol=1.0 / qcomp=0.60 / qpmin=0 / qpmax=69 / qpstep=4 / cplxblur=20.0 / qblur=0.5 / vbv_maxrate=50000 / vbv_bufsize=62500 / nal_hrd=none / filler=0 / ip_ratio=1.40 / pb_ratio=1.30 / aq=1:1.00
Default : Да
Forced : Нет

Аудио #1
Идентификатор : 2
Формат : AC-3
Формат/Информация : Audio Coding 3
Расширение режима : CM (complete main)
Параметр Endianness формата : Big
Идентификатор кодека : A_AC3
Продолжительность : 1 ч. 59 м.
Вид битрейта : Постоянный
Битрейт : 192 Кбит/сек
Каналы : 2 канала
Расположение каналов : Front: L R
Частота : 48,0 КГц
Частота кадров : 31,250 кадров/сек (1536 spf)
Битовая глубина : 16 бит
Метод сжатия : С потерями
Размер потока : 164 Мбайт (7%)
Заголовок : MVO [iTunes]
Язык : Russian
Default : Да
Forced : Нет

Аудио #2
Идентификатор : 3
Формат : AC-3
Формат/Информация : Audio Coding 3
Расширение режима : CM (complete main)
Параметр Endianness формата : Big
Идентификатор кодека : A_AC3
Продолжительность : 1 ч. 59 м.
Вид битрейта : Постоянный
Битрейт : 256 Кбит/сек
Каналы : 6 каналов
Расположение каналов : Front: L C R, Side: L R, LFE
Частота : 48,0 КГц
Частота кадров : 31,250 кадров/сек (1536 spf)
Битовая глубина : 16 бит
Метод сжатия : С потерями
Размер потока : 219 Мбайт (10%)
Заголовок : AVO [Alekseev]
Язык : Russian
Default : Нет
Forced : Нет

Текст
Идентификатор : 4
Формат : UTF-8
Идентификатор кодека : S_TEXT/UTF8
Идентификатор кодека/Информация : UTF-8 Plain Text
Продолжительность : 1 ч. 54 м.
Битрейт : 85 бит/сек
Count of elements : 822
Размер потока : 71,5 Кбайт (0%)
Заголовок : Full
Язык : Russian
Default : Нет
Forced : Нет

Меню
00:00:00.000 : en:Chapter 01
00:04:13.461 : en:Chapter 02
00:10:58.115 : en:Chapter 03
00:16:10.094 : en:Chapter 04
00:20:28.435 : en:Chapter 05
00:25:21.853 : en:Chapter 06
00:30:06.638 : en:Chapter 07
00:36:25.933 : en:Chapter 08
00:42:09.485 : en:Chapter 09
00:44:45.724 : en:Chapter 10
00:51:32.047 : en:Chapter 11
00:57:27.652 : en:Chapter 12
01:04:16.018 : en:Chapter 13
01:08:08.000 : en:Chapter 14
01:13:20.354 : en:Chapter 15
01:18:10.811 : en:Chapter 16
01:23:29.671 : en:Chapter 17
01:30:35.680 : en:Chapter 18
01:38:23.772 : en:Chapter 19
Мистериум. Тьма в бутылке / Flaskepost fra P (2016)

Мистериум. Тьма в бутылке / Flaskepost fra P




Год выпуска: 2016
Страна: Дания, Германия, Швеция, Норвегия
Производство: Det Danske Filminstitut, Film i Väst, TV2 Danmark
Жанр: Триллер, криминал, детектив


Режиссёр: Ганс Петтер Моланд
В ролях: Николай Ли Каас, Фарес Фарес, Пол Сверре Валхейм Хаген, Якоб Ульрик Ломанн, Джохэнн Луиз Шмидт, Якоб Офтебро, Сигне Анастассиа Маннов, Сёрен Пильмарк, Михаэль Броструп, Якоб Хёйлев Ёргенсон


Перевод: Любительский многоголосый | [Paradox" & Omskbird records], авторский | [Немахов]
Субтитры: Русские (полные)
Реклама: Отсутствует

Описание: Выброшенная на берег моря бутылка с леденящим душу посланием, написанным восемь лет назад, привлекает внимание особого отдела полиции Копенгагена. За расследование берутся комиссар Карл Мёрк и его помощник. Они выходят на след убийцы-психопата и раскрывают жуткую историю похищенных детей, об исчезновении которых никто не заявлял.




Качество: BDRip-AVC | |
Продолжительность: 01:51:29

Формат: MKV
Видео кодек: MPEG-4 AVC
Аудио кодек: AC3
Видео: 1168x496 (2.35:1), 24,000 fps, x264 ~2 347 kbps avg, 0.169 bit/pixel
Аудио #1: 48 kHz, AC3 Dolby Digital, 2 (L,R) ch, ~192.00 kbps avg | RUS (Paradox" & Omskbird records)
Аудио #2: 48 kHz, AC3 Dolby Digital, 3/2 (L,C,R,l,r) + LFE ch, ~256.00 kbps avg | RUS (Немахов)


MediaInfo
Общее
Уникальный идентификатор : 2145791182145803733815535962870508427 (0x19D43AC63CA40561D1CBD2DA2A7EB8B)
Полное имя : F:Misterium.2013-2018.BDRip(AVC).OllanDGroupFlaskepost.fra.P.2016.BDRip(AVC).OlLanDGroup.mkv
Формат : Matroska
Версия формата : Version 4 / Version 2
Размер файла : 2,18 Гбайт
Продолжительность : 1 ч. 51 м.
Общий поток : 2796 Кбит/сек
Название фильма : Flaskepost.fra.P.2016 #TorpedoUK#
Дата кодирования : UTC 2019-05-31 17:24:02
Программа кодирования : mkvmerge v29.0.0 ('Like It Or Not') 64-bit
Библиотека кодирования : libebml v1.3.6 + libmatroska v1.4.9

Видео
Идентификатор : 1
Формат : AVC
Формат/Информация : Advanced Video Codec
Профиль формата : High@L4.1
Параметр CABAC формата : Да
Параметр ReFrames формата : 10 кадров
Идентификатор кодека : V_MPEG4/ISO/AVC
Продолжительность : 1 ч. 51 м.
Битрейт : 2347 Кбит/сек
Ширина : 1168 пикселей
Высота : 496 пикселей
Соотношение сторон : 2,35:1
Режим частоты кадров : Постоянный
Частота кадров : 24,000 кадра/сек
Цветовое пространство : YUV
Субдискретизация насыщенности : 4:2:0
Битовая глубина : 8 бит
Тип развёртки : Прогрессивная
Бит/(Пиксели*Кадры) : 0.169
Размер потока : 1,83 Гбайт (84%)
Библиотека кодирования : x264 core 146 r2538 121396c
Настройки программы : cabac=1 / ref=10 / deblock=1:-3:-3 / analyse=0x3:0x113 / me=umh / subme=11 / psy=1 / psy_rd=1.00:0.03 / mixed_ref=1 / me_range=48 / chroma_me=1 / trellis=2 / 8x8dct=1 / cqm=0 / deadzone=21,11 / fast_pskip=1 / chroma_qp_offset=-3 / threads=6 / lookahead_threads=1 / sliced_threads=0 / nr=0 / decimate=1 / interlaced=0 / bluray_compat=0 / constrained_intra=0 / bframes=11 / b_pyramid=2 / b_adapt=2 / b_bias=0 / direct=3 / weightb=1 / open_gop=0 / weightp=2 / keyint=240 / keyint_min=24 / scenecut=40 / intra_refresh=0 / rc_lookahead=40 / rc=2pass / mbtree=0 / bitrate=2347 / ratetol=1.0 / qcomp=0.60 / qpmin=0 / qpmax=69 / qpstep=4 / cplxblur=20.0 / qblur=0.5 / vbv_maxrate=50000 / vbv_bufsize=62500 / nal_hrd=none / filler=0 / ip_ratio=1.40 / pb_ratio=1.30 / aq=1:1.00
Default : Да
Forced : Нет

Аудио #1
Идентификатор : 2
Формат : AC-3
Формат/Информация : Audio Coding 3
Расширение режима : CM (complete main)
Параметр Endianness формата : Big
Идентификатор кодека : A_AC3
Продолжительность : 1 ч. 51 м.
Вид битрейта : Постоянный
Битрейт : 192 Кбит/сек
Каналы : 2 канала
Расположение каналов : Front: L R
Частота : 48,0 КГц
Частота кадров : 31,250 кадров/сек (1536 spf)
Битовая глубина : 16 бит
Метод сжатия : С потерями
Размер потока : 153 Мбайт (7%)
Заголовок : MVO [Paradox&Omskbird]
Язык : Russian
Default : Да
Forced : Нет

Аудио #2
Идентификатор : 3
Формат : AC-3
Формат/Информация : Audio Coding 3
Расширение режима : CM (complete main)
Параметр Endianness формата : Big
Идентификатор кодека : A_AC3
Продолжительность : 1 ч. 51 м.
Вид битрейта : Постоянный
Битрейт : 256 Кбит/сек
Каналы : 6 каналов
Расположение каналов : Front: L C R, Side: L R, LFE
Частота : 48,0 КГц
Частота кадров : 31,250 кадров/сек (1536 spf)
Битовая глубина : 16 бит
Метод сжатия : С потерями
Размер потока : 204 Мбайт (9%)
Заголовок : AVO [Немахов]
Язык : Russian
Default : Нет
Forced : Нет

Текст
Идентификатор : 4
Формат : UTF-8
Идентификатор кодека : S_TEXT/UTF8
Идентификатор кодека/Информация : UTF-8 Plain Text
Продолжительность : 1 ч. 46 м.
Битрейт : 69 бит/сек
Count of elements : 1212
Размер потока : 54,1 Кбайт (0%)
Заголовок : Full
Язык : Russian
Default : Нет
Forced : Нет

Меню
00:00:00.000 : en:00:00:00.000
00:09:48.542 : en:00:09:48.542
00:20:55.792 : en:00:20:55.792
00:30:47.167 : en:00:30:47.167
00:41:20.542 : en:00:41:20.542
00:53:17.625 : en:00:53:17.625
01:02:45.750 : en:01:02:45.750
01:12:56.875 : en:01:12:56.875
01:23:17.458 : en:01:23:17.458
01:33:34.167 : en:01:33:34.167
01:42:35.917 : en:01:42:35.917
Мистериум. Журнал 64 / Journal 64 (2018)

Мистериум. Журнал 64 / Journal 64




Год выпуска: 2018
Страна: Дания, Германия
Производство: Det Danske Filminstitut, Deutscher Filmförderfonds
Жанр: Триллер, криминал, детектив


Режиссёр: Кристоффер Боэ
В ролях: Фарес Фарес, Николай Ли Каас, Николас Бро, Андерс Хове, Эллиотт Кроссет Хов, Андерс Юль, Сёрен Пильмарк, Фанни Борнедал, Вибеке Хаструп, Трине Паллесен, Ванда Перделвиц, Джохэнн Луиз Шмидт, Бирте Нойманн


Перевод: Профессиональный многоголосый | [HDRezka Studio], любительский одноголосый | [Хихидок]
Субтитры: Русские (полные)
Реклама: Отсутствует

Описание: В заброшенной квартире найдены три мумифицированных трупа. Дело передано детективу копенгагенской полиции Карлу Мерку и его помощнику Ассаду. Расследование приводит детектива в женскую клинику на острове, более похожую на тюрьму.




Качество: BDRip-AVC | |
Продолжительность: 01:57:54

Формат: MKV
Видео кодек: MPEG-4 AVC
Аудио кодек: AC3
Видео: 1168x490 (2.40:1), 24,000 fps, x264 ~2 195 kbps avg, 0.160 bit/pixel
Аудио #1: 48 kHz, AC3 Dolby Digital, 2 (L,R) ch, ~192.00 kbps avg | RUS (HDRezka Studio)
Аудио #2: 48 kHz, AC3 Dolby Digital, 2 (L,R) ch, ~256.00 kbps avg | RUS (Хихидок)


MediaInfo
Общее
Уникальный идентификатор : 159634699635080482780448166907755784152 (0x7818865A8A807509FB8511034ECE67D8)
Полное имя : F:Misterium.2013-2018.BDRip(AVC).OllanDGroupJournal.64.2018.BDRip(AVC).OllanDGroup.mkv
Формат : Matroska
Версия формата : Version 4 / Version 2
Размер файла : 2,18 Гбайт
Продолжительность : 1 ч. 57 м.
Общий поток : 2643 Кбит/сек
Название фильма : Journal.64.2018 #TorpedoUK#
Дата кодирования : UTC 2019-05-31 17:20:48
Программа кодирования : mkvmerge v29.0.0 ('Like It Or Not') 64-bit
Библиотека кодирования : libebml v1.3.6 + libmatroska v1.4.9
Attachments : 55.png / 9.jpg / 9.jpg / 9.jpg

Видео
Идентификатор : 1
Формат : AVC
Формат/Информация : Advanced Video Codec
Профиль формата : High@L4.1
Параметр CABAC формата : Да
Параметр ReFrames формата : 10 кадров
Идентификатор кодека : V_MPEG4/ISO/AVC
Продолжительность : 1 ч. 57 м.
Битрейт : 2195 Кбит/сек
Ширина : 1168 пикселей
Высота : 490 пикселей
Соотношение сторон : 2,40:1
Режим частоты кадров : Постоянный
Частота кадров : 24,000 кадра/сек
Цветовое пространство : YUV
Субдискретизация насыщенности : 4:2:0
Битовая глубина : 8 бит
Тип развёртки : Прогрессивная
Бит/(Пиксели*Кадры) : 0.160
Размер потока : 1,80 Гбайт (83%)
Библиотека кодирования : x264 core 146 r2538 121396c
Настройки программы : cabac=1 / ref=10 / deblock=1:-3:-3 / analyse=0x3:0x113 / me=umh / subme=11 / psy=1 / psy_rd=1.00:0.03 / mixed_ref=1 / me_range=48 / chroma_me=1 / trellis=2 / 8x8dct=1 / cqm=0 / deadzone=21,11 / fast_pskip=1 / chroma_qp_offset=-3 / threads=6 / lookahead_threads=1 / sliced_threads=0 / nr=0 / decimate=1 / interlaced=0 / bluray_compat=0 / constrained_intra=0 / bframes=11 / b_pyramid=2 / b_adapt=2 / b_bias=0 / direct=3 / weightb=1 / open_gop=0 / weightp=2 / keyint=240 / keyint_min=24 / scenecut=40 / intra_refresh=0 / rc_lookahead=40 / rc=2pass / mbtree=0 / bitrate=2195 / ratetol=1.0 / qcomp=0.60 / qpmin=0 / qpmax=69 / qpstep=4 / cplxblur=20.0 / qblur=0.5 / vbv_maxrate=50000 / vbv_bufsize=62500 / nal_hrd=none / filler=0 / ip_ratio=1.40 / pb_ratio=1.30 / aq=1:1.00
Default : Да
Forced : Нет

Аудио #1
Идентификатор : 2
Формат : AC-3
Формат/Информация : Audio Coding 3
Расширение режима : CM (complete main)
Параметр Endianness формата : Big
Идентификатор кодека : A_AC3
Продолжительность : 1 ч. 57 м.
Вид битрейта : Постоянный
Битрейт : 192 Кбит/сек
Каналы : 2 канала
Расположение каналов : Front: L R
Частота : 48,0 КГц
Частота кадров : 31,250 кадров/сек (1536 spf)
Битовая глубина : 16 бит
Метод сжатия : С потерями
Размер потока : 162 Мбайт (7%)
Заголовок : MVO [HDRezka Studio]
Язык : Russian
Default : Да
Forced : Нет

Аудио #2
Идентификатор : 3
Формат : AC-3
Формат/Информация : Audio Coding 3
Расширение режима : CM (complete main)
Параметр Endianness формата : Big
Идентификатор кодека : A_AC3
Продолжительность : 1 ч. 57 м.
Вид битрейта : Постоянный
Битрейт : 256 Кбит/сек
Каналы : 2 канала
Расположение каналов : Front: L R
Частота : 48,0 КГц
Частота кадров : 31,250 кадров/сек (1536 spf)
Битовая глубина : 16 бит
Метод сжатия : С потерями
Размер потока : 216 Мбайт (10%)
Заголовок : VO [Xixidok]
Язык : Russian
Default : Нет
Forced : Нет

Текст
Идентификатор : 4
Формат : UTF-8
Идентификатор кодека : S_TEXT/UTF8
Идентификатор кодека/Информация : UTF-8 Plain Text
Продолжительность : 1 ч. 53 м.
Битрейт : 76 бит/сек
Count of elements : 1000
Размер потока : 63,7 Кбайт (0%)
Заголовок : Full
Язык : Russian
Default : Нет
Forced : Нет

Меню
00:00:00.000 : :Глава 01
00:08:18.707 : :Глава 02
00:17:59.578 : :Глава 03
00:25:00.833 : :Глава 04
00:34:04.876 : :Глава 05
00:41:59.517 : :Глава 06
00:52:34.026 : :Глава 07
01:02:35.001 : :Глава 08
01:11:51.140 : :Глава 09
01:20:24.111 : :Глава 10
01:29:41.835 : :Глава 11
01:35:44.030 : :Глава 12
 

Вложения

  • 44,7 KB Просмотры: 1
    Личеров 0
    Сидеров 0
    Файлов 4
    Объем 8,7 GB

Привет!

Мы группа людей которые решили помочь другим в решении их проблем, а так же пользователям с поиском самых свежих и качественных инфопродуктов. За 4 с небольшим месяца мы создали этот форум на который заходят ежедневно тысячи человек и посещаемость постоянно растёт. Мы создали панель лицензирования для защиты PHP скриптов от воровства и SEO панель для мониторинга наших сайтов и выбора верной стратегии их развития. Мы надеемся что то что мы создали пригодится Вам и возможно Вы поможете нам развиваться и совершенствоваться вместе с Вами.

Статистика форума

Темы
404.540
Сообщения
461.433
Пользователи
80.064
Новый пользователь
aleks0231

Приложения форума для iOS и Android


У ркн там нет власти ;)
Приватные разговоры
Помощь Пользователи
    Вы не присоединились ни к одной комнате.