За последнюю неделю опубликовано 57 новых материалов.
Инструкция новичку Путеводитель по форуму Прокси для Telegram Показать подсказки , это бомба!

Скачать Мистер и миссис Смит / Mr. & Mrs. Smith (2005) WEB-DLRip 720p от SuperMin | D | Theatrical Cut | Open Matte бесплатно через торрент

  • Поучаствуй (в качестве покупателя) в любых пяти совместных покупках (кроме завершённых и "Моментальных") и получи группу "Новичок" навсегда -> ссылка на раздел
  • Получай до 480 рублей за каждого приглашенного пользователя!
    представляем Вам очередное расширение партнерской программы, подробности описаны тут -> ссылка
  • 90% материалов доступно к скачиванию после простой регистрации!
    Если же ты хочешь скачивать материалы без требования оставлять отзывы то получи группу "Новичок", 10 способов повышения описаны тут -> ссылка
  • К сожалению количество битых ссылок растет и мы уже не можем их оперативно восстанавливать поэтому просим помощи у каждого нашего пользователя.
    С сегодняшнего дня, за каждую восстановленную ссылку мы заплатим Вам.
    Подробнее тут -> ссылка
  • Перенесем твои заслуги с другого ресурса!
    Мы понимаем как сложно прокачивать аккаунты на форумах, вроде раскачал аккаунт, а тут появляется ресурс в 100 раз круче но тоже с системой прокачки и снова качать аккаунт...
    Предлагаем вам перенести Ваши заслуги на другом подобном ресурсе к нам.
    Подробности описаны тут -> ссылка
  • Вы можете получать по 2.5% с каждой покупки и продажи на маркете! Подробности в теме Партнёрская программа
Если Вы не хотите скачивать, Вы всегда можетепосмотретьонлайн, просто нажмите кнопку ниже :

Открыть плеер

Torrent_Bot

Торрент-Бот
Бот форума
4 Окт 2016
92
163
20



Информация о фильме
Название: Мистер и миссис Смит
Оригинальное название: Mr. & Mrs. Smith
Год выхода: 2005
Жанр:боевик, мелодрама, комедия
Режиссер: Даг Лайман
В ролях: Брэд Питт (John Smith), Анджелина Джоли (Jane Smith), Винс Вон (Eddie), Адам Броди (Benjamin Danz), Керри Вашингтон (Jasmine), Кит Дэвид (Father), Крис Вайц (Martin Coleman), Рэйчел Хантли (Suzy Coleman), Мишель Монахэн (Gwen), Стефани Марч (Julie - Associate #1), Дженнифер Моррисон (Jade - Associate #2), Тереза Баррера (Janet - Associate #3)



Молодая супружеская пара ведет мирную и размеренную жизнь в своем доме за городом. Джейн и Джон Смиты не так давно скрепили свои жизни браком, однако уже успели устать от рутины отношений. Они молоды, красивы, а работа у них - скучнее не придумаешь. Однако пока еще они не в курсе главных секретов своих вторых половинок. Джейн и Джон на самом деле являются профессиональными киллерами. Причем, работают они в разных организациях, конкурирующих между собой. Однако самая интересная часть их семейной жизни начинается в тот момент, когда им поступают указания ликвидировать друг друга. Каждый из супругов, возмущенный и обиженный обманом своей второй половинки, берется за дело. Что, как не охота такого рода способно лучшим образом освежить супружеские отношения наемных убийц?




Страна: США
Студия: Epsilon Motion Pictures, New Regency Pictures, Regency Enterprises, Summit Entertainment, Weed Road Pictures
Продолжительность: 01:59:58
Перевод: Дубляж

Файл
Кодек: H.264
Качество: WEB-DLRip 720p
Видео: 1280x720 (16:9), 2821 kbps, 23.976 fps
Звук: Русский (AC-3, 6ch, 448 kbps)
Английский (AC-3, 6ch, 448 kbps)
Субтитры: русские, английские



MI
x264 [info]: frame I:1203 Avg QP:16.54 size: 79362
x264 [info]: frame P:43752 Avg QP:18.30 size: 29989
x264 [info]: frame B:127617 Avg QP:22.11 size: 8857
x264 [info]: consecutive B-frames: 3.7% 5.7% 15.1% 19.7% 17.8% 28.5% 5.4% 2.4% 1.3% 0.4%

General
Unique ID : 131729945461816541717330859003409052342 (0x631A43C058FA55C66FC068553C23B2B6)
Complete name : F:ФИЛЬМЫРУТОРМистер и миссис Смит (Open Matte). WEB-DLRip 720p.mkv
Format : Matroska
Format version : Version 4
File size : 3.12 GiB
Duration : 1 h 59 min
Overall bit rate : 3 719 kb/s
Movie name : Мистер и миссис Смит / Mr. & Mrs. Smith (2005) (Open Matte) - #LORDKILL#
Encoded date : UTC 2020-08-01 04:02:51
Writing application : mkvmerge v32.0.0 ('Astral Progressions') 64-bit
Writing library : libebml v1.3.7 + libmatroska v1.5.0

Video
ID : 1
Format : AVC
Format/Info : Advanced Video Codec
Format profile : [email protected]
Format settings : CABAC / 9 Ref Frames
Format settings, CABAC : Yes
Format settings, Reference : 9 frames
Codec ID : V_MPEG4/ISO/AVC
Duration : 1 h 59 min
Bit rate : 2 821 kb/s
Width : 1 280 pixels
Height : 720 pixels
Display aspect ratio : 16:9
Frame rate mode : Constant
Frame rate : 23.976 (24000/1001) FPS
Color space : YUV
Chroma subsampling : 4:2:0
Bit depth : 8 bits
Scan type : Progressive
Bits/(Pixel*Frame) : 0.128
Stream size : 2.36 GiB (76%)
Writing library : x264 core 159 r2991 1771b55
Encoding settings : cabac=1 / ref=9 / deblock=1:-2:-2 / analyse=0x3:0x113 / me=umh / subme=10 / psy=1 / psy_rd=1.00:0.20 / mixed_ref=1 / me_range=32 / chroma_me=1 / trellis=2 / 8x8dct=1 / cqm=0 / deadzone=21,11 / fast_pskip=0 / chroma_qp_offset=-3 / threads=12 / lookahead_threads=2 / sliced_threads=0 / nr=0 / decimate=1 / interlaced=0 / bluray_compat=0 / constrained_intra=0 / bframes=9 / b_pyramid=2 / b_adapt=2 / b_bias=0 / direct=1 / weightb=1 / open_gop=0 / weightp=2 / keyint=240 / keyint_min=23 / scenecut=40 / intra_refresh=0 / rc=crf / mbtree=0 / crf=20.0 / qcomp=0.60 / qpmin=0 / qpmax=69 / qpstep=4 / ip_ratio=1.40 / pb_ratio=1.30 / aq=1:1.00
Default : Yes
Forced : No

Audio #1
ID : 2
Format : AC-3
Format/Info : Audio Coding 3
Commercial name : Dolby Digital
Codec ID : A_AC3
Duration : 1 h 59 min
Bit rate mode : Constant
Bit rate : 448 kb/s
Channel(s) : 6 channels
Channel layout : L R C LFE Ls Rs
Sampling rate : 48.0 kHz
Frame rate : 31.250 FPS (1536 SPF)
Compression mode : Lossy
Stream size : 384 MiB (12%)
Title : Дубляж (R5)
Language : Russian
Service kind : Complete Main
Default : Yes
Forced : No

Audio #2
ID : 3
Format : AC-3
Format/Info : Audio Coding 3
Commercial name : Dolby Digital
Codec ID : A_AC3
Duration : 1 h 59 min
Bit rate mode : Constant
Bit rate : 448 kb/s
Channel(s) : 6 channels
Channel layout : L R C LFE Ls Rs
Sampling rate : 48.0 kHz
Frame rate : 31.250 FPS (1536 SPF)
Compression mode : Lossy
Stream size : 384 MiB (12%)
Language : English
Service kind : Complete Main
Default : No
Forced : No

Text #1
ID : 4
Format : UTF-8
Codec ID : S_TEXT/UTF8
Codec ID/Info : UTF-8 Plain Text
Duration : 1 h 51 min
Bit rate : 64 b/s
Count of elements : 1080
Stream size : 53.1 KiB (0%)
Title : Full (R5)
Language : Russian
Default : No
Forced : No

Text #2
ID : 5
Format : UTF-8
Codec ID : S_TEXT/UTF8
Codec ID/Info : UTF-8 Plain Text
Duration : 1 h 51 min
Bit rate : 49 b/s
Count of elements : 1242
Stream size : 40.8 KiB (0%)
Title : SDH
Language : English
Default : No
Forced : No

Menu
00:00:00.000 : en:Studio Logos
00:00:37.000 : en:The Smith's Go to Marriage Counseling, Opening Credits
00:02:19.000 : en:police Search for Tourists Traveling Alone
00:03:37.000 : en:John and Jane Drink and Dance
00:04:58.000 : en:John Brings Jane Breakfast
00:06:29.000 : en:John and Jane Go on a Date
00:07:49.000 : en:John and Jane Tell Friends They're Getting Married
00:09:04.000 : en:The Smiths Start a Typical Morning
00:10:38.000 : en:Benjamin Gets an Assignment
00:11:33.000 : en:John Comes Home
00:14:13.000 : en:The Smiths Complain about Marriage
00:17:16.000 : en:The Smiths Go to Separate Jobs
00:22:50.000 : en:The Smiths Go to a Neighbor's Party
00:25:22.000 : en:The Smiths Prepare to Receive New Assignments
00:30:02.000 : en:The Smiths Go After Benjamin
00:34:50.000 : en:The Smiths Try to Figure Out Who Botched Their Jobs
00:37:50.000 : en:John and Jane Discover One Another's Identities
00:39:26.000 : en:The Smiths Have a Tense Dinner
00:46:49.000 : en:The Smiths Tell Their Friends about Their Situations
00:50:13.000 : en:Jane's Team Searches Her House
00:52:55.000 : en:John Visits Jane
00:56:01.000 : en:John Finds a Clue in the Furnace
00:56:59.000 : en:Jane Threatens John
01:00:45.000 : en:John and Jane Tango
01:05:59.000 : en:The Smiths Talk about Their Relationship
01:07:56.000 : en:John and Jane Arrive Home
01:10:16.000 : en:John and Jane Fight with Each Other
01:17:30.000 : en:The Smiths Become Targets
01:18:03.000 : en:The Smiths Reminisce about Past Missions
01:19:48.000 : en:Assassins Attempt to Kill the Smiths
01:23:56.000 : en:The Smiths Learn More about Each Other While Eluding Assassins
01:29:05.000 : en:The Smiths Meet with Eddie for More Information
01:31:05.000 : en:Jane Gets Information on Benjamin
01:31:27.000 : en:The Smiths Go After Benjamin
01:35:33.000 : en:The Smiths Argue about Teamwork
01:36:46.000 : en:The Smiths Learn They Were Set Up
01:39:43.000 : en:The Smiths Escape and Plan to Fight
01:41:37.000 : en:The Smiths Defend Themselves from Assassins
01:47:56.000 : en:The Smiths Prepare for the Final Assault
01:50:01.000 : en:The Smiths Go Out Guns Blazing
01:51:26.000 : en:John and Jane Speak about Their Rekindled Marriage
01:52:26.000 : en:End Credits
Скриншоты
Сравнение
 

Вложения

  • 16,9 KB Просмотры: 0
    Личеров 0
    Сидеров 0
    Файлов 1
    Объем 3,1 GB

Привет!

Мы группа людей которые решили помочь другим в решении их проблем, а так же пользователям с поиском самых свежих и качественных инфопродуктов. За 4 с небольшим месяца мы создали этот форум на который заходят ежедневно тысячи человек и посещаемость постоянно растёт. Мы создали панель лицензирования для защиты PHP скриптов от воровства и SEO панель для мониторинга наших сайтов и выбора верной стратегии их развития. Мы надеемся что то что мы создали пригодится Вам и возможно Вы поможете нам развиваться и совершенствоваться вместе с Вами.

Статистика форума

Темы
406.698
Сообщения
465.162
Пользователи
84.793
Новый пользователь
vt7x2fyxlzwd

Приложения форума для iOS и Android


У ркн там нет власти ;)
Приватные разговоры
Помощь Пользователи
    Вы не присоединились ни к одной комнате.