За последнюю неделю опубликовано 52 новых материалов.
Инструкция новичку Путеводитель по форуму Прокси для Telegram Показать подсказки , это бомба!

Скачать Мисс Фрайни Фишер и гробница слёз / Miss Fisher and the Crypt of Tears (2020) BDRemux 1080p | P бесплатно через торрент

  • Поучаствуй (в качестве покупателя) в любых пяти совместных покупках (кроме завершённых и "Моментальных") и получи группу "Новичок" навсегда -> ссылка на раздел
  • Получай до 480 рублей за каждого приглашенного пользователя!
    представляем Вам очередное расширение партнерской программы, подробности описаны тут -> ссылка
  • 90% материалов доступно к скачиванию после простой регистрации!
    Если же ты хочешь скачивать материалы без требования оставлять отзывы то получи группу "Новичок", 10 способов повышения описаны тут -> ссылка
  • К сожалению количество битых ссылок растет и мы уже не можем их оперативно восстанавливать поэтому просим помощи у каждого нашего пользователя.
    С сегодняшнего дня, за каждую восстановленную ссылку мы заплатим Вам.
    Подробнее тут -> ссылка
  • Перенесем твои заслуги с другого ресурса!
    Мы понимаем как сложно прокачивать аккаунты на форумах, вроде раскачал аккаунт, а тут появляется ресурс в 100 раз круче но тоже с системой прокачки и снова качать аккаунт...
    Предлагаем вам перенести Ваши заслуги на другом подобном ресурсе к нам.
    Подробности описаны тут -> ссылка
  • Вы можете получать по 2.5% с каждой покупки и продажи на маркете! Подробности в теме Партнёрская программа
Если Вы не хотите скачивать, Вы всегда можетепосмотретьонлайн, просто нажмите кнопку ниже :

Открыть плеер

Torrent_Bot

Торрент-Бот
Бот форума
4 Окт 2016
93
160
20


Информация о фильме
Название: Мисс Фрайни Фишер и гробница слёз
Оригинальное название: Miss Fisher and the Crypt of Tears
Год выхода: 2020
Жанр: Детектив, приключения
Режиссер: Тони Тилс
В ролях: Эсси Дэвис, Эшли Каммингс, Жаклин Маккензи, Мириам Марголис, Хьюго Джонстон-Барт, Руперт Пенри-Джонс, Нэйтан Пейдж, Дэниэл Лапэйн, Энтони Шарп, Джон Уотерс

О фильме:
Освободив молодую бедуинскую девушку Ширин из несправедливого заключения в Иерусалимской тюрьме, леди-детектив Фрайни Фишер берется за разгадку тайны прошлого, касающуюся бесценных изумрудов, древних проклятий и правды о подозрительном исчезновении забытого племени Ширин. Британские аристократы, на жизни которых отразились печальные события Первой мировой войны в Палестине, также оказались втянутыми в эту тайну.




Страна: Австралия
Студия: Every Cloud Productions
Продолжительность: 01:41:07
Перевод: Профессиональный многоголосый | ViruseProject

Файл
Кодек: x.264
Качество: BDRemux 1080p
Видео: MPEG-4 AVC, 22.9 Mбит/с, 1920x1080, 24.000 кадр/с
Аудио #1: Русский (АС3, 6 ch, 448 Кбит/с, 48.0 KHz) Профессиональный (многоголосый, закадровый) ViruseProject
Аудио #2: Английский (АС3, 6 ch, 640 Кбит/с, 48.0 KHz)
Аудио #3: Английский (DTS-HD MA, 6 ch, 2391 Кбит/с, 48.0 KHz)
Субтитры: английские
► Без Рекламы!
Трейлер
MediaInfo
Источник: Miss.Fisher.and.the.Crypt.of.Tears.2020.1080p.BluRay.AVC.DTS-HD.MA.5.1-FGT
General
Unique ID : 252169917371907725975942046368093946371 (0xBDB628D499A501E8B3DB9567202BC203)
Complete name : Miss.Fisher.and.the.Crypt.of.Tears.2020.1080p.BluRay.Remux.mkv
Format : Matroska
Format version : Version 4
File size : 18.6 GiB
Duration : 1 h 41 min
Overall bit rate mode : Variable
Overall bit rate : 26.4 Mb/s
Encoded date : UTC 2020-06-19 18:51:54
Writing application : mkvmerge v7.1.0 ('Good Love') 64bit built on Jul 27 2014 13:06:55
Writing library : libebml v1.3.0 + libmatroska v1.4.1

Video
ID : 1
Format : AVC
Format/Info : Advanced Video Codec
Format profile : [email protected]
Format settings : CABAC / 3 Ref Frames
Format settings, CABAC : Yes
Format settings, Reference fra : 3 frames
Codec ID : V_MPEG4/ISO/AVC
Duration : 1 h 41 min
Bit rate mode : Variable
Bit rate : 22.9 Mb/s
Maximum bit rate : 40.0 Mb/s
Width : 1 920 pixels
Height : 1 080 pixels
Display aspect ratio : 16:9
Frame rate mode : Constant
Frame rate : 24.000 FPS
Color space : YUV
Chroma subsampling : 4:2:0
Bit depth : 8 bits
Scan type : Progressive
Bits/(Pixel*Frame) : 0.460
Stream size : 16.2 GiB (87%)
Writing library : x264 core 148 r2638 7599210
Encoding settings : cabac=1 / ref=4 / deblock=1:-1:-1 / analyse=0x3:0x133 / me=umh / subme=10 / psy=1 / psy_rd=1.00:0.15 / mixed_ref=1 / me_range=24 / chroma_me=1 / trellis=2 / 8x8dct=1 / cqm=0 / deadzone=21,11 / fast_pskip=1 / chroma_qp_offset=-3 / threads=12 / lookahead_threads=1 / sliced_threads=0 / slices=4 / nr=0 / decimate=1 / interlaced=0 / bluray_compat=1 / constrained_intra=0 / bframes=3 / b_pyramid=1 / b_adapt=2 / b_bias=0 / direct=3 / weightb=1 / open_gop=1 / weightp=1 / keyint=23 / keyint_min=1 / scenecut=40 / intra_refresh=0 / rc_lookahead=23 / rc=2pass / mbtree=1 / bitrate=22900 / ratetol=1.0 / qcomp=0.60 / qpmin=0 / qpmax=69 / qpstep=4 / cplxblur=20.0 / qblur=0.5 / vbv_maxrate=40000 / vbv_bufsize=30000 / nal_hrd=vbr / filler=0 / ip_ratio=1.40 / aq=1:1.00
Language : English
Default : Yes
Forced : No
Color range : Limited
Color primaries : BT.709
Transfer characteristics : BT.709
Matrix coefficients : BT.709

Audio #1
ID : 2
Format : AC-3
Format/Info : Audio Coding 3
Commercial name : Dolby Digital
Codec ID : A_AC3
Duration : 1 h 41 min
Bit rate mode : Constant
Bit rate : 448 kb/s
Channel(s) : 6 channels
Channel layout : L R C LFE Ls Rs
Sampling rate : 48.0 kHz
Frame rate : 31.250 FPS (1536 SPF)
Compression mode : Lossy
Stream size : 324 MiB (2%)
Language : Russian
Service kind : Complete Main
Default : Yes
Forced : No

Audio #2
ID : 3
Format : AC-3
Format/Info : Audio Coding 3
Commercial name : Dolby Digital
Codec ID : A_AC3
Duration : 1 h 41 min
Bit rate mode : Constant
Bit rate : 640 kb/s
Channel(s) : 6 channels
Channel layout : L R C LFE Ls Rs
Sampling rate : 48.0 kHz
Frame rate : 31.250 FPS (1536 SPF)
Compression mode : Lossy
Stream size : 463 MiB (2%)
Language : English
Service kind : Complete Main
Default : No
Forced : No

Audio #3
ID : 4
Format : DTS XLL
Format/Info : Digital Theater Systems
Commercial name : DTS-HD Master Audio
Codec ID : A_DTS
Duration : 1 h 41 min
Bit rate mode : Variable
Bit rate : 2 391 kb/s
Channel(s) : 6 channels
Channel layout : C L R Ls Rs LFE
Sampling rate : 48.0 kHz
Frame rate : 93.750 FPS (512 SPF)
Bit depth : 16 bits
Compression mode : Lossless
Stream size : 1.69 GiB (9%)
Language : English
Default : No
Forced : No

Text #1
ID : 5
Format : UTF-8
Codec ID : S_TEXT/UTF8
Codec ID/Info : UTF-8 Plain Text
Duration : 1 h 39 min
Bit rate : 46 b/s
Count of elements : 1132
Stream size : 34.1 KiB (0%)
Language : English
Default : No
Forced : No

Text #2
ID : 6
Format : PGS
Muxing mode : zlib
Codec ID : S_HDMV/PGS
Codec ID/Info : Picture based subtitle format used on BDs/HD-DVDs
Duration : 1 h 40 min
Bit rate : 13.6 kb/s
Count of elements : 2722
Stream size : 9.79 MiB (0%)
Language : English
Default : No
Forced : No

Menu
00:00:00.000 : en:Chapter 1
00:08:46.500 : en:Chapter 2
00:17:30.083 : en:Chapter 3
00:25:58.333 : en:Chapter 4
00:35:03.083 : en:Chapter 5
00:43:43.541 : en:Chapter 6
00:51:39.166 : en:Chapter 7
01:01:11.458 : en:Chapter 8
01:10:28.083 : en:Chapter 9
01:20:09.250 : en:Chapter 10
01:28:53.333 : en:Chapter 11
01:36:07.000 : en:Chapter 12
Скриншоты




 

Вложения

  • 47,5 KB Просмотры: 0
    Личеров 0
    Сидеров 0
    Файлов 1
    Объем 18,6 GB

Привет!

Мы группа людей которые решили помочь другим в решении их проблем, а так же пользователям с поиском самых свежих и качественных инфопродуктов. За 4 с небольшим месяца мы создали этот форум на который заходят ежедневно тысячи человек и посещаемость постоянно растёт. Мы создали панель лицензирования для защиты PHP скриптов от воровства и SEO панель для мониторинга наших сайтов и выбора верной стратегии их развития. Мы надеемся что то что мы создали пригодится Вам и возможно Вы поможете нам развиваться и совершенствоваться вместе с Вами.

Статистика форума

Темы
406.648
Сообщения
465.114
Пользователи
84.619
Новый пользователь
genohe8890

Приложения форума для iOS и Android


У ркн там нет власти ;)
Приватные разговоры
Помощь Пользователи
    Вы не присоединились ни к одной комнате.