За последнюю неделю опубликовано 26 новых материалов.
Инструкция новичку Путеводитель по форуму Прокси для Telegram Показать подсказки , это бомба!

Скачать Мина / Mine (2016) HDRip-AVC | D | ITA Transfer бесплатно через торрент

  • Поучаствуй (в качестве покупателя) в любых пяти совместных покупках (кроме завершённых и "Моментальных") и получи группу "Новичок" навсегда -> ссылка на раздел
  • Получай до 480 рублей за каждого приглашенного пользователя!
    представляем Вам очередное расширение партнерской программы, подробности описаны тут -> ссылка
  • 90% материалов доступно к скачиванию после простой регистрации!
    Если же ты хочешь скачивать материалы без требования оставлять отзывы то получи группу "Новичок", 10 способов повышения описаны тут -> ссылка
  • К сожалению количество битых ссылок растет и мы уже не можем их оперативно восстанавливать поэтому просим помощи у каждого нашего пользователя.
    С сегодняшнего дня, за каждую восстановленную ссылку мы заплатим Вам.
    Подробнее тут -> ссылка
  • Перенесем твои заслуги с другого ресурса!
    Мы понимаем как сложно прокачивать аккаунты на форумах, вроде раскачал аккаунт, а тут появляется ресурс в 100 раз круче но тоже с системой прокачки и снова качать аккаунт...
    Предлагаем вам перенести Ваши заслуги на другом подобном ресурсе к нам.
    Подробности описаны тут -> ссылка
  • Вы можете получать по 2.5% с каждой покупки и продажи на маркете! Подробности в теме Партнёрская программа
Если Вы не хотите скачивать, Вы всегда можетепосмотретьонлайн, просто нажмите кнопку ниже :

Открыть плеер

Torrent_Bot

Торрент-Бот
Бот форума
4 Окт 2016
93
155
20



Информация о фильме
Название: Мина
Оригинальное название: Mine
Год выпуска: 2016
Жанр: триллер
Режиссер: Фабио Гуальоне , Фабио Резинаро
В ролях: Аннабелль Уоллис (Jenny), Арми Хаммер (Mike), Том Каллен (Tommy Madison), Джульетт Обри (Mike's Mother), Джофф Белл (Mike's Father), Клинг Дайер (Berber), Люка Перос (Delta Force #1), Дэвид Трейлор (Comander Barton)

Описание:
Американский солдат после проваленной миссии оказывается в одиночестве посреди афганской пустыни. Одной ногой стоя на мине, он не может двинуться с места, но продолжает бороться за жизнь против суровой природы, блуждающих врагов, собственного отчаяния и страха.



Страна: США, Испания, Италия
Продолжительность: 01:46:30
Перевод: Дублированный (Netflix)
Субтитры: Русские (AlexFilm, SDH AlexFilm)

Файл
Формат: MKV
Качество: HDRip-AVC
Видео: x264, 960x408 (2.35:1), 24.000 fps, ~1502 Kb/s
Аудио: AC-3, 48.0 KHz, 6 ch, 448 Kbps
Формат субтитров: softsub (SRT)

***Релиз от:-=DoMiNo=-

M/I
x264 info: frame I:1164 Avg QP:14.61 size: 39501
x264 info: frame P:40459 Avg QP:16.40 size: 16026
x264 info: frame B:111738 Avg QP:17.79 size: 4484
x264 info: consecutive B-frames: 6.3% 6.0% 11.5% 17.4% 15.9% 28.0% 5.9% 1.6% 3.9% 1.9% 0.5% 0.3% 0.8%

General
Unique ID : 295008840104390283141311670229962541814 (0xDDF0A2CA727BC04EFAA7184012EF4AF6)
Complete name : Мина.(2016).HDRip-AVC.D.[-=DoMiNo=-].mkv
Format : Matroska
Format version : Version 4
File size : 1.45 GiB
Duration : 1 h 46 min
Overall bit rate : 1 950 kb/s
Movie name : Мина / Mine (2016)
Deion : Психологический триллер об американском солдате, который после проваленной миссии оказывается в одиночестве посреди афганской пустыни. Одной ногой стоя на мине, он не может двинуться с места, но продолжает бороться за жизнь против суровой природы, блуждающих врагов, собственного отчаяния и страха.
Attachments : poster / poster
ACTORS : Armie Hammer, Annabelle Wallis, Tom Cullen, Geoff Bell, Juliet Aubrey, Clint Dyer, Luka Peroš, David Kirk Traylor, Ines Pinar Mille, Daniel Sandoval, Edoardo Purgatori
COUNTRY : Italy, Spain, United States
DATE : 2016-10-06
DIRECTOR : Fabio Guaglione, Fabio Resinaro
GENRE : Триллер, Военный
ITUNEXTC : mpaa|NR|000|
ORIGINAL_TITLE : Mine
PRODUCER : Peter Safran
PUBLISHER : Eagle Pictures, The Safran Company, Roxbury, SUN FILM, Mine Canarias, Ministero per i Beni e le Attività Culturali
RATING : 6.50
WRITER : Fabio Guaglione, Fabio Resinaro

Video
ID : 1
Format : AVC
Format/Info : Advanced Video Codec
Format profile : High@L4.1
Format settings : CABAC / 12 Ref Frames
Format settings, CABAC : Yes
Format settings, Reference : 12 frames
Codec ID : V_MPEG4/ISO/AVC
Duration : 1 h 46 min
Bit rate : 1 502 kb/s
Width : 960 pixels
Height : 408 pixels
Display aspect ratio : 2.35:1
Frame rate mode : Constant
Frame rate : 24.000 FPS
Color space : YUV
Chroma subsampling : 4:2:0
Bit depth : 8 bits
Scan type : Progressive
Bits/(Pixel*Frame) : 0.160
Stream size : 1.09 GiB (75%)
Title : RIP_BY_-=DoMiNo=-
Writing library : x264 core 157 r2969 d4099dd
Encoding settings : cabac=1 / ref=12 / deblock=1:-2:-2 / analyse=0x3:0x133 / me=umh / subme=11 / psy=1 / psy_rd=1.00:0.00 / mixed_ref=1 / me_range=56 / chroma_me=1 / trellis=2 / 8x8dct=1 / cqm=0 / deadzone=21,11 / fast_pskip=0 / chroma_qp_offset=-2 / threads=6 / lookahead_threads=1 / sliced_threads=0 / nr=0 / decimate=0 / interlaced=0 / bluray_compat=0 / constrained_intra=0 / bframes=12 / b_pyramid=2 / b_adapt=2 / b_bias=0 / direct=3 / weightb=1 / open_gop=0 / weightp=2 / keyint=250 / keyint_min=23 / scenecut=40 / intra_refresh=0 / rc=2pass / mbtree=0 / bitrate=1502 / ratetol=1.0 / qcomp=0.60 / qpmin=0 / qpmax=69 / qpstep=4 / cplxblur=20.0 / qblur=0.5 / ip_ratio=1.40 / pb_ratio=1.30 / aq=3:1.00
Language : English
Default : Yes
Forced : No

Audio
ID : 2
Format : AC-3
Format/Info : Audio Coding 3
Commercial name : Dolby Digital
Codec ID : A_AC3
Duration : 1 h 46 min
Bit rate mode : Constant
Bit rate : 448 kb/s
Channel(s) : 6 channels
Channel layout : L R C LFE Ls Rs
Sampling rate : 48.0 kHz
Frame rate : 31.250 FPS (1536 SPF)
Bit depth : 16 bits
Compression mode : Lossy
Stream size : 341 MiB (23%)
Title : DUB_[N.F]
Language : Russian
Service kind : Complete Main
Default : Yes
Forced : No

Text #1
ID : 3
Format : UTF-8
Codec ID : S_TEXT/UTF8
Codec ID/Info : UTF-8 Plain Text
Title : AlexFilm
Language : Russian
Default : Yes
Forced : No

Text #2
ID : 4
Format : UTF-8
Codec ID : S_TEXT/UTF8
Codec ID/Info : UTF-8 Plain Text
Title : SDH AlexFilm
Language : Russian
Default : No
Forced : No
Скриншоты
 

Вложения

  • 15,5 KB Просмотры: 1
    Личеров 0
    Сидеров 0
    Файлов 1
    Объем 1,5 GB

Привет!

Мы группа людей которые решили помочь другим в решении их проблем, а так же пользователям с поиском самых свежих и качественных инфопродуктов. За 4 с небольшим месяца мы создали этот форум на который заходят ежедневно тысячи человек и посещаемость постоянно растёт. Мы создали панель лицензирования для защиты PHP скриптов от воровства и SEO панель для мониторинга наших сайтов и выбора верной стратегии их развития. Мы надеемся что то что мы создали пригодится Вам и возможно Вы поможете нам развиваться и совершенствоваться вместе с Вами.

Статистика форума

Темы
406.543
Сообщения
464.690
Пользователи
83.366
Новый пользователь
Виктория Вики

Приложения форума для iOS и Android


У ркн там нет власти ;)
Приватные разговоры
Помощь Пользователи
    Вы не присоединились ни к одной комнате.