За последнюю неделю опубликовано 0 новых материалов.
Инструкция новичку Путеводитель по форуму Прокси для Telegram Показать подсказки , это бомба!

Скачать Милый Ханс, дорогой Петр / My Good Hans (2015) HDTV 1080i от MediaClub бесплатно через торрент

  • Поучаствуй (в качестве покупателя) в любых пяти совместных покупках (кроме завершённых и "Моментальных") и получи группу "Новичок" навсегда -> ссылка на раздел
  • Получай до 480 рублей за каждого приглашенного пользователя!
    представляем Вам очередное расширение партнерской программы, подробности описаны тут -> ссылка
  • 90% материалов доступно к скачиванию после простой регистрации!
    Если же ты хочешь скачивать материалы без требования оставлять отзывы то получи группу "Новичок", 10 способов повышения описаны тут -> ссылка
  • К сожалению количество битых ссылок растет и мы уже не можем их оперативно восстанавливать поэтому просим помощи у каждого нашего пользователя.
    С сегодняшнего дня, за каждую восстановленную ссылку мы заплатим Вам.
    Подробнее тут -> ссылка
  • Перенесем твои заслуги с другого ресурса!
    Мы понимаем как сложно прокачивать аккаунты на форумах, вроде раскачал аккаунт, а тут появляется ресурс в 100 раз круче но тоже с системой прокачки и снова качать аккаунт...
    Предлагаем вам перенести Ваши заслуги на другом подобном ресурсе к нам.
    Подробности описаны тут -> ссылка
  • Вы можете получать по 2.5% с каждой покупки и продажи на маркете! Подробности в теме Партнёрская программа
Если Вы не хотите скачивать, Вы всегда можетепосмотретьонлайн, просто нажмите кнопку ниже :

Открыть плеер

Torrent_Bot

Торрент-Бот
Бот форума
4 Окт 2016
79
196
20
Информация о фильме
Название: Милый Ханс, дорогой Петр
Оригинальное название: My Good Hans
Год выхода: 2015
Жанр: Драма
Режиссер: Александр Миндадзе
В ролях: Якоб Диль, Биргит Минихмайр, Марк Вашке, Марк Хоземанн, Э Роза Хайруллина, Андрюс Даряла, Евгений Сармонт, Ангелина Римашевская, Анна Скиданова, Светлана Косолапова

О фильме:
Накануне войны немецкие инженеры работают на советском заводе над производством высокоточной оптики. Судьба и благополучие каждого из них зависит от успеха дела, но пока результата нет — ошибки следуют одна за другой. На фоне производственных неудач и приближения трагической эпохи раскрываются личные проблемы героев и их непростые взаимоотношения. Во время ответственной варки у инженера Ханса случается нервный срыв, приведший к тяжелым последствиям: взрыву, смертям и расследованию советских спецслужб. Свидетелем его проступка становится русский рабочий Пётр. Ханс и Пётр, случайно ставший причастным к преступлению, оказываются в зависимости друг от друга, повязанные страхом разоблачения. Однако взаимное недоверие парадоксальным образом оборачивается духовной близостью. Когда Петр с женой и детьми тайно бежит из города, гонимый страхом расстрела, немецкий инженер вместо облегчения испытывает чувство утраты. Вскоре Ханс возвращается в те же места, но уже в офицерской форме, смотрит в бинокль сквозь созданные им же линзы, обозревая окрестности: а была ли недавняя мирная жизнь?.



Страна: Россия, Великобритания, Германия
Студия: AI Film, Cine Plus, Ma.Ja.De., Sota Cinema Group, Пассажир
Продолжительность: 01:59:12
Перевод: Профессиональный одноголосый на немецкую речь

Файл
Кодек: h.264
Качество: HDTV 1080i
Видео: MPEG-TS AVC, ~ 6672 Кбит/с, 1920x1080, 25.000 кадр/с
Звук: Русский (AC3, 6 ch, 448 Кбит/с)
Субтитры: Нет

Семпл

MI
General
ID : 1 (0x1)
Complete name : D:uTorrentMilyi.Hans.dorogoi.Pjetr.2015.HDTV.1080i.MediaClub.ts
Format : MPEG-TS
File size : 6.24 GiB
Duration : 1 h 59 min
Overall bit rate mode : Variable
Overall bit rate : 7 495 kb/s
Maximum Overall bit rate : 35.5 Mb/s

Video
ID : 4113 (0x1011)
Menu ID : 1 (0x1)
Format : AVC
Format/Info : Advanced Video Codec
Format profile : [email protected]
Format settings, CABAC : Yes
Format settings, ReFrames : 4 frames
Codec ID : 27
Duration : 1 h 59 min
Bit rate mode : Variable
Bit rate : 6 672 kb/s
Maximum bit rate : 40.0 Mb/s
Width : 1 920 pixels
Height : 1 080 pixels
Display aspect ratio : 16:9
Frame rate : 25.000 FPS
Color space : YUV
Chroma subsampling : 4:2:0
Bit depth : 8 bits
Scan type : Interlaced
Scan type, store method : Separated fields
Scan order : Top Field First
Bits/(Pixel*Frame) : 0.129
Stream size : 5.56 GiB (89%)
Color range : Limited
Color primaries : BT.709
Transfer characteristics : BT.709
Matrix coefficients : BT.709

Audio
ID : 4352 (0x1100)
Menu ID : 1 (0x1)
Format : AC-3
Format/Info : Audio Coding 3
Mode extension : CM (complete main)
Format settings, Endianness : Big
Codec ID : 129
Duration : 1 h 59 min
Bit rate mode : Constant
Bit rate : 448 kb/s
Channel(s) : 6 channels
Channel positions : Front: L C R, Side: L R, LFE
Sampling rate : 44.1 kHz
Frame rate : 28.711 FPS (1536 spf)
Compression mode : Lossy
Stream size : 382 MiB (6%)
Language : Russian
Скриншоты

Релиз от: | Silverok
 

Вложения

  • 16,7 KB Просмотры: 1
    Личеров 0
    Сидеров 0
    Файлов 1
    Объем 6,2 GB

Привет!

Мы группа людей которые решили помочь другим в решении их проблем, а так же пользователям с поиском самых свежих и качественных инфопродуктов. За 4 с небольшим месяца мы создали этот форум на который заходят ежедневно тысячи человек и посещаемость постоянно растёт. Мы создали панель лицензирования для защиты PHP скриптов от воровства и SEO панель для мониторинга наших сайтов и выбора верной стратегии их развития. Мы надеемся что то что мы создали пригодится Вам и возможно Вы поможете нам развиваться и совершенствоваться вместе с Вами.

Статистика форума

Темы
414.370
Сообщения
475.396
Пользователи
96.561
Новый пользователь
starushka

Приложения форума для iOS и Android


У ркн там нет власти ;)
Приватные разговоры
Помощь Пользователи
    Вы не присоединились ни к одной комнате.