За последнюю неделю опубликовано 36 новых материалов.
Инструкция новичку Путеводитель по форуму Прокси для Telegram Показать подсказки , это бомба!

Скачать Миллиард (2019) WEB-DL 1080p | iTunes бесплатно через торрент

  • Поучаствуй (в качестве покупателя) в любых пяти совместных покупках (кроме завершённых и "Моментальных") и получи группу "Новичок" навсегда -> ссылка на раздел
  • Получай до 480 рублей за каждого приглашенного пользователя!
    представляем Вам очередное расширение партнерской программы, подробности описаны тут -> ссылка
  • 90% материалов доступно к скачиванию после простой регистрации!
    Если же ты хочешь скачивать материалы без требования оставлять отзывы то получи группу "Новичок", 10 способов повышения описаны тут -> ссылка
  • К сожалению количество битых ссылок растет и мы уже не можем их оперативно восстанавливать поэтому просим помощи у каждого нашего пользователя.
    С сегодняшнего дня, за каждую восстановленную ссылку мы заплатим Вам.
    Подробнее тут -> ссылка
  • Перенесем твои заслуги с другого ресурса!
    Мы понимаем как сложно прокачивать аккаунты на форумах, вроде раскачал аккаунт, а тут появляется ресурс в 100 раз круче но тоже с системой прокачки и снова качать аккаунт...
    Предлагаем вам перенести Ваши заслуги на другом подобном ресурсе к нам.
    Подробности описаны тут -> ссылка
  • Вы можете получать по 2.5% с каждой покупки и продажи на маркете! Подробности в теме Партнёрская программа
Если Вы не хотите скачивать, Вы всегда можетепосмотретьонлайн, просто нажмите кнопку ниже :

Открыть плеер

Torrent_Bot

Торрент-Бот
Бот форума
4 Окт 2016
91
163
20



Информация о фильме
Название: Миллиард
Год выхода: 2019
Жанр: Комедия, боевик
Страна: Россия
Перевод: Не требуется
Продолжительность: 01:36:46
Режиссер: Роман Прыгунов
В ролях: Владимир Машков, Александра Бортич, Гела Месхи, Павел Чинарёв, Марина Петренко, Мария Миронова, Даниил Спиваковский, Григорий Калинин, Федор Бавтриков, Дмитрий Астрахан и др.

О фильме: Влиятельный банкир делает всё возможное, чтобы не делиться имуществом со своими незаконнорожденными сыновьями. Но когда его лишают всех денег, выясняется, что помочь Матвею могут только они… Чтобы вернуть себе состояние, миллиардер будет вынужден пойти на ограбление собственного банка в Монте-Карло. А для этого ему придётся выполнить ещё более сложную задачу: вернуть доверие выросших без отца детей…



Файл
Качество: WEB-DL 1080p
Видео: MPEG-4 AVC, 1920x804, 4549 kbps, 25,000 fps
Звук: русский, AC3, 5.1 ch, 48 kHz, 384 kbps
Субтитры: нет

MI
Общее
Уникальный идентификатор : 187076900791785319884733971082312994320 (0x8CBDB354DF6EF80C938D48CA7C5CCE10)
Полное имя : F:TorrentMilliardWEBDL1080p.mkv
Формат : Matroska
Версия формата : Version 4 / Version 2
Размер файла : 3,34 Гбайт
Продолжительность : 1 ч. 36 м.
Общий поток : 4935 Кбит/сек
Дата кодирования : UTC 2019-06-30 18:34:20
Программа кодирования : mkvmerge v9.5.0 ('Quiet Fire') 64bit
Библиотека кодирования : libebml v1.3.4 + libmatroska v1.4.5

Видео
Идентификатор : 1
Формат : AVC
Формат/Информация : Advanced Video Codec
Профиль формата : [email protected]
Настройки формата : CABAC / 5 Ref Frames
Параметр CABAC формата : Да
Параметр RefFrames формата : 5 кадров
Идентификатор кодека : V_MPEG4/ISO/AVC
Продолжительность : 1 ч. 36 м.
Битрейт : 4549 Кбит/сек
Ширина : 1920 пикселей
Высота : 804 пикселя
Соотношение сторон : 2,40:1
Режим частоты кадров : Постоянный
Частота кадров : 25,000 кадров/сек
Цветовое пространство : YUV
Субдискретизация насыщенности : 4:2:0
Битовая глубина : 8 бит
Тип развёртки : Прогрессивная
Бит/(Пиксели*Кадры) : 0.118
Размер потока : 3,07 Гбайт (92%)
Заголовок : Sisendrovich(R)
Язык : English
Default : Да
Forced : Нет
Цветовой диапазон : Limited
Основные цвета : BT.709
Характеристики трансфера : BT.709
Коэффициенты матрицы : BT.709

Аудио
Идентификатор : 2
Формат : AC-3
Формат/Информация : Audio Coding 3
Параметр Endianness формата : Big
Идентификатор кодека : A_AC3
Продолжительность : 1 ч. 36 м.
Вид битрейта : Постоянный
Битрейт : 384 Кбит/сек
Каналы : 6 каналов
Расположение каналов : Front: L C R, Side: L R, LFE
Частота : 48,0 КГц
Частота кадров : 31,250 кадров/сек (1536 SPF)
Битовая глубина : 16 бит
Метод сжатия : С потерями
Размер потока : 266 Мбайт (8%)
Язык : Russian
Default : Да
Forced : Нет

Меню
00:00:00.000 : en:Глава 1
00:06:13.080 : en:Глава 2
00:12:46.280 : en:Глава 3
00:19:14.520 : en:Глава 4
00:25:43.480 : en:Глава 5
00:32:31.920 : en:Глава 6
00:39:28.440 : en:Глава 7
00:44:57.120 : en:Глава 8
00:52:20.360 : en:Глава 9
00:58:54.640 : en:Глава 10
01:05:46.840 : en:Глава 11
01:12:42.520 : en:Глава 12
01:20:22.040 : en:Глава 13
01:27:17.080 : en:Глава 14
Скриншоты


Релиз от:
 

Вложения

  • 17,7 KB Просмотры: 1
    Личеров 0
    Сидеров 0
    Файлов 1
    Объем 3,3 GB

Привет!

Мы группа людей которые решили помочь другим в решении их проблем, а так же пользователям с поиском самых свежих и качественных инфопродуктов. За 4 с небольшим месяца мы создали этот форум на который заходят ежедневно тысячи человек и посещаемость постоянно растёт. Мы создали панель лицензирования для защиты PHP скриптов от воровства и SEO панель для мониторинга наших сайтов и выбора верной стратегии их развития. Мы надеемся что то что мы создали пригодится Вам и возможно Вы поможете нам развиваться и совершенствоваться вместе с Вами.

Статистика форума

Темы
410.488
Сообщения
469.048
Пользователи
85.750
Новый пользователь
ааиринаа

Приложения форума для iOS и Android


У ркн там нет власти ;)
Приватные разговоры
Помощь Пользователи
    Вы не присоединились ни к одной комнате.