За последнюю неделю опубликовано 122 новых материалов.
Инструкция новичку Путеводитель по форуму Прокси для Telegram Показать подсказки , это бомба!

Скачать Микроволновая резня / Microwave Massacre (1983) BDRip 720p | A бесплатно через торрент

  • Поучаствуй (в качестве покупателя) в любых пяти совместных покупках (кроме завершённых и "Моментальных") и получи группу "Новичок" навсегда -> ссылка на раздел
  • Получай до 480 рублей за каждого приглашенного пользователя!
    представляем Вам очередное расширение партнерской программы, подробности описаны тут -> ссылка
  • 90% материалов доступно к скачиванию после простой регистрации!
    Если же ты хочешь скачивать материалы без требования оставлять отзывы то получи группу "Новичок", 10 способов повышения описаны тут -> ссылка
  • К сожалению количество битых ссылок растет и мы уже не можем их оперативно восстанавливать поэтому просим помощи у каждого нашего пользователя.
    С сегодняшнего дня, за каждую восстановленную ссылку мы заплатим Вам.
    Подробнее тут -> ссылка
  • Перенесем твои заслуги с другого ресурса!
    Мы понимаем как сложно прокачивать аккаунты на форумах, вроде раскачал аккаунт, а тут появляется ресурс в 100 раз круче но тоже с системой прокачки и снова качать аккаунт...
    Предлагаем вам перенести Ваши заслуги на другом подобном ресурсе к нам.
    Подробности описаны тут -> ссылка
  • Вы можете получать по 2.5% с каждой покупки и продажи на маркете! Подробности в теме Партнёрская программа
Если Вы не хотите скачивать, Вы всегда можетепосмотретьонлайн, просто нажмите кнопку ниже :

Открыть плеер

Torrent_Bot

Торрент-Бот
Бот форума
4 Окт 2016
82
186
20



Информация о фильме
Название: Микроволновая резня
Оригинальное название: Microwave Massacre
Год выхода: 1983
Жанр: комедия, ужасы
Режиссер: Уэйн Бервик
В ролях: Джеки Вернон, Лорен Шайн, Аль Троуп, Марла Саймон, Клер Гинсберг, Лу Энн Веббер, Анна Марлоу, Синди Гант, Сара Альт, Карен Маршалл

О фильме: Строитель Дональд любил хорошо поесть, но его супруга Мэй, которая и так была никудышной поварихой, еще вдруг решила готовить стряпню используя только замороженные полуфабрикаты. И вот однажды терпению Дональда пришел конец, в порыве гнева он убил свою жену. Но что делать с трупом? Решение подсказала попавшая на его глаза столь надоевшая микроволновая печь. Он расчленил труп, разложил отдельные кусочки в фольгу и испек их в микроволновке. Позже попробовав супругу на вкус Дональд начал расценивать людей лишь как потенциальную пищу…



Страна: США
Продолжительность: 01:16:22
Перевод: Авторский (одноголосый закадровый) Сергей Кузнецов

Файл
Качество: BDRip 720p
Видео: MPEG-4 AVC, 9600 Кбит/с, 1280x690
Аудио 1: Russian; AC3; 48.0 KHz; 2ch; 192 Kbps | Кузнецов
Аудио 2: English; FLAC; 48.0 KHz; 1ch; 741 Kbps | Original
Аудио 3: English; AC3; 48.0 KHz; 2ch; 192 Kbps | Commentary

Автор релиза: GoldDust

Скриншоты
MediaInfo
General
Unique ID : 236013025776271028622826945128420977092 (0xB18E7492866D61219267F6AA81BDA9C4)
Complete name : J:nripsMicrowave.Massacre.1983.BDRip.720p.mkv
Format : Matroska
Format version : Version 4 / Version 2
File size : 5.73 GiB
Duration : 1 h 16 min
Overall bit rate mode : Variable
Overall bit rate : 10.7 Mb/s
Encoded date : UTC 2017-11-21 10:29:58
Writing application : mkvmerge v15.0.0 ('Duel with the Devil') 64-bit
Writing library : libebml v1.3.5 + libmatroska v1.4.5

Video
ID : 1
Format : AVC
Format/Info : Advanced Video Codec
Format profile : [email protected]
Format settings : CABAC / 9 Ref Frames
Format settings, CABAC : Yes
Format settings, RefFrames : 9 frames
Codec ID : V_MPEG4/ISO/AVC
Duration : 1 h 16 min
Bit rate : 9 600 kb/s
Width : 1 280 pixels
Height : 690 pixels
Display aspect ratio : 1.85:1
Frame rate mode : Constant
Frame rate : 23.976 (24000/1001) FPS
Color space : YUV
Chroma subsampling : 4:2:0
Bit depth : 8 bits
Scan type : Progressive
Bits/(Pixel*Frame) : 0.453
Stream size : 5.12 GiB (89%)
Title : Microwave Massacre 1983 720p
Writing library : x264 core 146 r2538 121396c
Encoding settings : cabac=1 / ref=9 / deblock=1:-3:-3 / analyse=0x3:0x113 / me=umh / subme=11 / psy=1 / psy_rd=1.00:0.00 / mixed_ref=1 / me_range=48 / chroma_me=1 / trellis=2 / 8x8dct=1 / cqm=0 / deadzone=21,11 / fast_pskip=0 / chroma_qp_offset=-2 / threads=9 / lookahead_threads=1 / sliced_threads=0 / nr=0 / decimate=0 / interlaced=0 / bluray_compat=0 / constrained_intra=0 / bframes=9 / b_pyramid=2 / b_adapt=2 / b_bias=0 / direct=3 / weightb=1 / open_gop=1 / weightp=2 / keyint=240 / keyint_min=23 / scenecut=40 / intra_refresh=0 / rc_lookahead=50 / rc=2pass / mbtree=1 / bitrate=9600 / ratetol=1.0 / qcomp=0.60 / qpmin=0 / qpmax=69 / qpstep=4 / cplxblur=20.0 / qblur=0.5 / vbv_maxrate=14000 / vbv_bufsize=14000 / nal_hrd=none / filler=0 / ip_ratio=1.40 / aq=1:1.10
Language : English
Default : Yes
Forced : No

Audio #1
ID : 2
Format : AC-3
Format/Info : Audio Coding 3
Format settings, Endianness : Big
Codec ID : A_AC3
Duration : 1 h 16 min
Bit rate mode : Constant
Bit rate : 192 kb/s
Channel(s) : 2 channels
Channel positions : Front: L R
Sampling rate : 48.0 kHz
Frame rate : 31.250 FPS (1536 SPF)
Bit depth : 16 bits
Compression mode : Lossy
Delay relative to video : 2 s 530 ms
Stream size : 105 MiB (2%)
Title : AVO Кузнецов
Language : Russian
Service kind : Complete Main
Default : Yes
Forced : No

Audio #2
ID : 3
Format : FLAC
Format/Info : Free Lossless Audio Codec
Codec ID : A_FLAC
Duration : 1 h 16 min
Bit rate mode : Variable
Bit rate : 741 kb/s
Channel(s) : 1 channel
Channel positions : Front: C
Sampling rate : 48.0 kHz
Frame rate : 11.719 FPS (4096 SPF)
Bit depth : 24 bits
Stream size : 405 MiB (7%)
Title : Original
Writing library : libFLAC 1.2.1 (UTC 2007-09-17)
Language : English
Default : No
Forced : No

Audio #3
ID : 4
Format : AC-3
Format/Info : Audio Coding 3
Format settings, Endianness : Big
Codec ID : A_AC3
Duration : 1 h 16 min
Bit rate mode : Constant
Bit rate : 192 kb/s
Channel(s) : 2 channels
Channel positions : Front: L R
Sampling rate : 48.0 kHz
Frame rate : 31.250 FPS (1536 SPF)
Bit depth : 16 bits
Compression mode : Lossy
Stream size : 105 MiB (2%)
Title : Commentary with Craig Muckler and Mike Tristano
Language : English
Service kind : Complete Main
Default : No
Forced : No

Text
ID : 5
Format : PGS
Muxing mode : zlib
Codec ID : S_HDMV/PGS
Codec ID/Info : Picture based subtitle format used on BDs/HD-DVDs
Duration : 1 h 14 min
Bit rate : 29.1 kb/s
Count of elements : 1448
Stream size : 15.4 MiB (0%)
Title : English SDH
Language : English
Default : No
Forced : No

Menu
00:00:00.000 : en:Opening Credits
00:03:44.724 : en:New Addition
00:09:59.098 : en:Home Sweet Home
00:16:36.453 : en:The Pickup
00:21:22.739 : en:The Final Straw
00:30:27.283 : en:Keep It Fresh
00:36:12.628 : en:Lunch Break
00:38:27.805 : en:I Could Eat a Whoere
00:47:23.340 : en:Can't Stop
00:50:40.495 : en:Chicken Breast
00:53:10.645 : en:Confessions
01:01:44.200 : en:Dr. Von Der Fool
01:05:12.408 : en:Share With Friends
01:10:47.743 : en:The End Is Near
01:14:05.941 : en:Closing Credits
 

Вложения

  • 29,5 KB Просмотры: 1
    Личеров 0
    Сидеров 0
    Файлов 1
    Объем 5,7 GB

Привет!

Мы группа людей которые решили помочь другим в решении их проблем, а так же пользователям с поиском самых свежих и качественных инфопродуктов. За 4 с небольшим месяца мы создали этот форум на который заходят ежедневно тысячи человек и посещаемость постоянно растёт. Мы создали панель лицензирования для защиты PHP скриптов от воровства и SEO панель для мониторинга наших сайтов и выбора верной стратегии их развития. Мы надеемся что то что мы создали пригодится Вам и возможно Вы поможете нам развиваться и совершенствоваться вместе с Вами.

Статистика форума

Темы
412.278
Сообщения
471.366
Пользователи
91.811
Новый пользователь
Austeen

Приложения форума для iOS и Android


У ркн там нет власти ;)
Приватные разговоры
Помощь Пользователи
    Вы не присоединились ни к одной комнате.