За последнюю неделю опубликовано 98 новых материалов.
Инструкция новичку Путеводитель по форуму Прокси для Telegram Показать подсказки , это бомба!

Скачать Мидори / Midori (1992) DVDRip | Persona99 бесплатно через торрент

  • Поучаствуй (в качестве покупателя) в любых пяти совместных покупках (кроме завершённых и "Моментальных") и получи группу "Новичок" навсегда -> ссылка на раздел
  • Получай до 480 рублей за каждого приглашенного пользователя!
    представляем Вам очередное расширение партнерской программы, подробности описаны тут -> ссылка
  • 90% материалов доступно к скачиванию после простой регистрации!
    Если же ты хочешь скачивать материалы без требования оставлять отзывы то получи группу "Новичок", 10 способов повышения описаны тут -> ссылка
  • К сожалению количество битых ссылок растет и мы уже не можем их оперативно восстанавливать поэтому просим помощи у каждого нашего пользователя.
    С сегодняшнего дня, за каждую восстановленную ссылку мы заплатим Вам.
    Подробнее тут -> ссылка
  • Перенесем твои заслуги с другого ресурса!
    Мы понимаем как сложно прокачивать аккаунты на форумах, вроде раскачал аккаунт, а тут появляется ресурс в 100 раз круче но тоже с системой прокачки и снова качать аккаунт...
    Предлагаем вам перенести Ваши заслуги на другом подобном ресурсе к нам.
    Подробности описаны тут -> ссылка
  • Вы можете получать по 2.5% с каждой покупки и продажи на маркете! Подробности в теме Партнёрская программа

Torrent_Bot

Торрент-Бот
Бот форума
4 Окт 2016
79
194
20
Год выпуска: 1992
Страна: Япония
Жанр: драма, ужасы
Тип: короткометражный фильм, 47 мин.
Режиссер: Харада Хироси

Описание:
Экранизация знаменитой своей средневековой жестокостью и эротизмом на грани хентая манги Маруо Суэхиро (Suehiro Maruo, род. 28.01.1956 г.) Midori - Shoujo Tsubaki (некоторые называют его стиль барочно-стилизованным садо-фашизмом), публиковавшейся в давнем оплоте альтернативной и авангардной манги - журнале Garo.
Япония, пятидесятые годы прошлого столетия. После смерти матери двенадцатилетняя Мидори остаётся круглой сиротой и оказывается в составе бродячей цирковой труппы, все члены которой имеют какие-либо физические уродства или отклонения. Бедной девочке пришлось перетерпеть там множество издевательств и унижений, пока к труппе не присоединился карлик доктор Масаницу, обладающий редким даром гипноза. Масаницу берёт Мидори под своё покровительство, но его чувства к ней не просто отеческие...
Доп. информация.
Хироси Харада работал над этим аниме пять лет, лично рисуя каждый кадр. После того, как не нашёлся ни один спонсор для этой картины, Харада вложил в неё все личные сбережения. Однако по окончанию фильм был запрещён к прокату, якобы из-за эстетизации секса и насилия, хотя в урезанном варианте всё же был кое-где показан.
(c) World-art

Перед просмотром уберите от экранов детей.
И - вы уверены, что хотите это смотреть?

Доп. информация:
Снято по манге: Шоу уродов господина Араси
Автор оригинала: Маруо Суэхиро

Релиз GSGroup


b2beafd792f64325dd63e023245b7a95.gif

Качество: DVDRip
Формат: AVI
Видео кодек: XviD
Видео: 640 x 464, 23,976 Гц, 1897 Kbps, 8 bits
Аудио1: MP3, 48000 Гц, Стерео, 128 Кбит/сек Язык Русский (в составе контейнера) ; Озвучка: Любительская одноголосая: Persona99
Аудио2: MP3, 48000 Гц, Стерео, 128 Кбит/сек Язык Японский ; Озвучка 2: Оригинал
Субтитры: внешние Язык субтитров русский ; Перевод: ([email protected])
Подробные тех. данные
General
Complete name : Midori 1992Midori_(Persona99)[DVDRipXviD640x464MP3].rus.jpn.avi
Format : AVI
Format/Info : Audio Video Interleave
File size : 745 MiB
Duration : 48mn 3s
Overall bit rate : 2 167 Kbps
Writing application : VirtualDubMod 1.5.10.2 (build 2540/release)
Writing library : VirtualDubMod build 2540/release

Video
ID : 0
Format : MPEG-4 Visual
Format profile : Advanced [email protected]
Format settings, BVOP : 1
Format settings, QPel : No
Format settings, GMC : No warppoints
Format settings, Matrix : Default (MPEG)
Muxing mode : Packed bitstream
Codec ID : XVID
Codec ID/Hint : XviD
Duration : 48mn 3s
Bit rate : 1 897 Kbps
Width : 640 pixels
Height : 464 pixels
Display aspect ratio : 1.379
Frame rate : 23.976 fps
Color space : YUV
Chroma subsampling : 4:2:0
Bit depth : 8 bits
Scan type : Progressive
Compression mode : Lossy
Bits/(Pixel*Frame) : 0.266
Stream size : 652 MiB (88%)
Writing library : XviD 1.2.0.dev47 (UTC 2006-11-01)

Audio #1
ID : 1
Format : MPEG Audio
Format version : Version 1
Format profile : Layer 3
Mode : Joint stereo
Mode extension : MS Stereo
Codec ID : 55
Codec ID/Hint : MP3
Duration : 48mn 3s
Bit rate mode : Constant
Bit rate : 128 Kbps
Channel(s) : 2 channels
Sampling rate : 48.0 KHz
Compression mode : Lossy
Stream size : 44.0 MiB (6%)
Alignment : Aligned on interleaves
Interleave, duration : 42 ms (1.00 video frame)
Interleave, preload duration : 504 ms
Writing library : LAME3.99r
Encoding settings : -m j -V 4 -q 2 -lowpass 17 -b 128

Audio #2
ID : 2
Format : MPEG Audio
Format version : Version 1
Format profile : Layer 3
Mode : Joint stereo
Mode extension : MS Stereo
Codec ID : 55
Codec ID/Hint : MP3
Duration : 48mn 3s
Bit rate mode : Constant
Bit rate : 128 Kbps
Channel(s) : 2 channels
Sampling rate : 48.0 KHz
Compression mode : Lossy
Stream size : 44.0 MiB (6%)
Alignment : Aligned on interleaves
Interleave, duration : 42 ms (1.00 video frame)
Interleave, preload duration : 504 ms
Writing library : LAME3.97b
Encoding settings : -m j -V 4 -q 2 -lowpass 17 -b 128
Скриншоты
a41f909372cd8e17b55b6550dc3b0b1e.jpg30d175a96c3dd386abf7b9ad4c5e39ee.jpg3f4b06ba1308e13a48331f5e4dd3bc45.jpgac0c4237ec7fdea0da6689337edaba81.jpg1795c071648c3538abd359b2ae7f874c.jpegc300a783186c14c67536a501adf2fa83.jpeg1c6b46311c81de726dcb34fbf434d062.jpegf2641299c8b8f3c55468aa59a67551c5.jpeg9bbe1b1b59eeab3c31877a8acb023816.jpeg
 

Вложения

Привет!

Мы группа людей которые решили помочь другим в решении их проблем, а так же пользователям с поиском самых свежих и качественных инфопродуктов. За 4 с небольшим месяца мы создали этот форум на который заходят ежедневно тысячи человек и посещаемость постоянно растёт. Мы создали панель лицензирования для защиты PHP скриптов от воровства и SEO панель для мониторинга наших сайтов и выбора верной стратегии их развития. Мы надеемся что то что мы создали пригодится Вам и возможно Вы поможете нам развиваться и совершенствоваться вместе с Вами.

Статистика форума

Темы
414.370
Сообщения
475.396
Пользователи
96.561
Новый пользователь
starushka

Приложения форума для iOS и Android


У ркн там нет власти ;)
Приватные разговоры
Помощь Пользователи
    Вы не присоединились ни к одной комнате.