За последнюю неделю опубликовано 160 новых материалов.
Инструкция новичку Путеводитель по форуму Прокси для Telegram Показать подсказки , это бомба!

Скачать Michal Martyniuk (Michał Martyniuk) - Resonate (2019) FLAC бесплатно через торрент

  • Поучаствуй (в качестве покупателя) в любых пяти совместных покупках (кроме завершённых и "Моментальных") и получи группу "Новичок" навсегда -> ссылка на раздел
  • Получай до 480 рублей за каждого приглашенного пользователя!
    представляем Вам очередное расширение партнерской программы, подробности описаны тут -> ссылка
  • 90% материалов доступно к скачиванию после простой регистрации!
    Если же ты хочешь скачивать материалы без требования оставлять отзывы то получи группу "Новичок", 10 способов повышения описаны тут -> ссылка
  • К сожалению количество битых ссылок растет и мы уже не можем их оперативно восстанавливать поэтому просим помощи у каждого нашего пользователя.
    С сегодняшнего дня, за каждую восстановленную ссылку мы заплатим Вам.
    Подробнее тут -> ссылка
  • Перенесем твои заслуги с другого ресурса!
    Мы понимаем как сложно прокачивать аккаунты на форумах, вроде раскачал аккаунт, а тут появляется ресурс в 100 раз круче но тоже с системой прокачки и снова качать аккаунт...
    Предлагаем вам перенести Ваши заслуги на другом подобном ресурсе к нам.
    Подробности описаны тут -> ссылка
  • Вы можете получать по 2.5% с каждой покупки и продажи на маркете! Подробности в теме Партнёрская программа

Torrent_Bot

Торрент-Бот
Бот форума
4 Окт 2016
124
93
20



Исполнитель: Michal Martyniuk
Название: Resonate
Страна: Poland/New Zealand
Жанр: Fusion, Contemporary-Jazz
Год: 2019
Продолжительность: 00:54:32 min
Битрейт аудио: Lossless
Формат/Кодек: FLAC
Тип рипа: tracks

1. Jazz Dance. 07:27
2. Java Blues. 03:26
3. 7AM. 08:50
4. Awakening. 05:10
5. Mr. Eady (Feat. Jakub Skowronski). 05:34
6. The Opening. 08:38
7. Good Bad News. 07:51
8. New Beginning. 07:32
Лог проверки качества
foobar2000 1.5 / Замер динамического диапазона (DR) 1.1.1
Дата отчёта: 2019-12-09 08:46:26

--------------------------------------------------------------------------------
Анализ: Michał Martyniuk / Resonate
--------------------------------------------------------------------------------

DR Пики RMS Продолжительность трека
--------------------------------------------------------------------------------
DR8 -0.59 дБ -11.60 дБ 7:28 01-Jazz Dance
DR12 0.00 дБ -13.81 дБ 3:26 02-Java Blues
DR12 -1.03 дБ -15.87 дБ 8:51 03-7AM
DR12 -0.53 дБ -14.95 дБ 5:10 04-Awakening
DR10 -0.99 дБ -12.38 дБ 5:34 05-Mr. Eady (Feat. Jakub Skowronski)
DR11 -0.17 дБ -13.65 дБ 8:38 06-The Opening
DR12 -1.01 дБ -15.07 дБ 7:51 07-Good Bad News
DR11 -0.72 дБ -13.31 дБ 7:33 08-New Beginning
--------------------------------------------------------------------------------

Количество треков: 8
Реальные значения DR: DR11

Частота: 44100 Гц
Каналов: 2
Разрядность: 16
Битрейт: 861 кбит/с
Кодек: FLAC
================================================================================

Внимание! Раздаю до первых трёх скачавших, дальше всё остаётся на вашей совести !
 

Вложения

  • 14,8 KB Просмотры: 0
    Личеров 0
    Сидеров 0
    Файлов 11
    Объем 342,2 MB
Ваш e-mail не будет опубликован. Он потребуется для подтверждения Вашего поста.
Оформление текста Нажмите «Ввод», чтобы отправить ответ.

Привет!

Мы группа людей которые решили помочь другим в решении их проблем, а так же пользователям с поиском самых свежих и качественных инфопродуктов. За 4 с небольшим месяца мы создали этот форум на который заходят ежедневно тысячи человек и посещаемость постоянно растёт. Мы создали панель лицензирования для защиты PHP скриптов от воровства и SEO панель для мониторинга наших сайтов и выбора верной стратегии их развития. Мы надеемся что то что мы создали пригодится Вам и возможно Вы поможете нам развиваться и совершенствоваться вместе с Вами.

Статистика форума

Темы
378.666
Сообщения
417.818
Пользователи
49.274
Новый пользователь
57116

Приложения форума для iOS и Android


У ркн там нет власти ;)
Приватные разговоры
Помощь Пользователи
    Вы не присоединились ни к одной комнате.