За последнюю неделю опубликовано 91 новых материалов.
Инструкция новичку Путеводитель по форуму Прокси для Telegram Показать подсказки , это бомба!

Скачать Между двумя папоротниками / Between Two Ferns: The Movie (2019) WEB-DLRip-AVC от MediaBit | Кубик в кубе бесплатно через торрент

  • Поучаствуй (в качестве покупателя) в любых пяти совместных покупках (кроме завершённых и "Моментальных") и получи группу "Новичок" навсегда -> ссылка на раздел
  • Получай до 480 рублей за каждого приглашенного пользователя!
    представляем Вам очередное расширение партнерской программы, подробности описаны тут -> ссылка
  • 90% материалов доступно к скачиванию после простой регистрации!
    Если же ты хочешь скачивать материалы без требования оставлять отзывы то получи группу "Новичок", 10 способов повышения описаны тут -> ссылка
  • К сожалению количество битых ссылок растет и мы уже не можем их оперативно восстанавливать поэтому просим помощи у каждого нашего пользователя.
    С сегодняшнего дня, за каждую восстановленную ссылку мы заплатим Вам.
    Подробнее тут -> ссылка
  • Перенесем твои заслуги с другого ресурса!
    Мы понимаем как сложно прокачивать аккаунты на форумах, вроде раскачал аккаунт, а тут появляется ресурс в 100 раз круче но тоже с системой прокачки и снова качать аккаунт...
    Предлагаем вам перенести Ваши заслуги на другом подобном ресурсе к нам.
    Подробности описаны тут -> ссылка
  • Вы можете получать по 2.5% с каждой покупки и продажи на маркете! Подробности в теме Партнёрская программа
Если Вы не хотите скачивать, Вы всегда можетепосмотретьонлайн, просто нажмите кнопку ниже :

Открыть плеер

Torrent_Bot

Торрент-Бот
Бот форума
4 Окт 2016
102
152
20



Информация о фильме
Название: Между двумя папоротниками
Оригинальное название: Between Two Ferns: The Movie
Год выхода: 2019
Жанр: Комедия
Режиссер: Скотт Окерман
В ролях: Зак Галифианакис, Мэттью МакКонахи, Рекха Шанкар, Уилл Феррелл, Брюс Уиллис, Киану Ривз, Бенедикт Камбербэтч, Питер Динклэйдж, Мо Абул-Зелоф, Гэбриел Гандакер, Фил Хендри, Мэри Шир, Майк Айви, Мэтт Бессер

О фильме: Зак Галифианакис — ведущий популярного шоу «Между двумя папоротниками», которое успело прославиться скандальными интервью со звездами и странными выходками Зака. Во время записи очередной программы, Галифианакис превзошел сам себя и чуть не убил Мэттью МакКонахи, после чего из знаменитого ведущего, он превратился в посмешище, а масла в огонь подлил Уилл Феррелл, выложив в сеть компрометирующее видео с Заком. Чтобы спасти свою репутацию и вернуться в эфир, ведущий вместе со съемочной группой отправляется в турне по стране, рассчитывая записать десять новых интервью со звездами первой величины...



Страна: США
Студия: Funny or Die
Продолжительность: 01:22:46
Перевод: Профессиональный (двухголосый, закадровый) | Кубик в Кубе

Файл
Кодек: MPEG-4 AVC
Качество: WEB-DLRip-AVC
Видео: 2207 Кбит/с, 1024x512, 24.000 кадр/с
Звук:
Аудио #1: AC3, 48 Гц, 448 Кбит/сек, 6 ch (L C R, + L R, LFE) | DVO
Аудио #2: AC3, 48 Гц, 448 Кбит/сек, 6 ch (L C R, + L R, LFE) | Английский
Субтитры: Русские, английские



MI
General
Unique ID : 190559868248963516249946117411995148796 (0x8F5C7EE2A699E3FE48EAE434EF8C61FC)
Complete name : D:2020 рипыОбъятья змеяMezhdu.dvumya.palimami.2019.x264.WEB-DLRip(AVC)-MediaBit.mkv
Format : Matroska
Format version : Version 4 / Version 2
File size : 1.80 GiB
Duration : 1 h 22 min
Overall bit rate : 3 106 kb/s
Movie name : Между двумя папоротниками / Between Two Ferns: The Movie (2019)
Encoded date : UTC 2020-06-30 15:34:49
Writing application : mkvmerge v25.0.0 ('Prog Noir') 64-bit
Writing library : libebml v1.3.6 + libmatroska v1.4.9

Video
ID : 1
Format : AVC
Format/Info : Advanced Video Codec
Format profile : High@L4.1
Format settings : CABAC / 11 Ref Frames
Format settings, CABAC : Yes
Format settings, ReFrames : 11 frames
Codec ID : V_MPEG4/ISO/AVC
Duration : 1 h 22 min
Bit rate : 2 207 kb/s
Width : 1 024 pixels
Height : 512 pixels
Display aspect ratio : 2.000
Frame rate mode : Constant
Frame rate : 24.000 FPS
Color space : YUV
Chroma subsampling : 4:2:0
Bit depth : 8 bits
Scan type : Progressive
Bits/(Pixel*Frame) : 0.175
Stream size : 1.28 GiB (71%)
Title : MediaBit
Writing library : x264 core 146 r2538 121396c
Encoding settings : cabac=1 / ref=11 / deblock=1:-3:-3 / analyse=0x3:0x113 / me=umh / subme=11 / psy=1 / psy_rd=1.00:0.20 / mixed_ref=1 / me_range=48 / chroma_me=1 / trellis=2 / 8x8dct=1 / cqm=0 / deadzone=21,11 / fast_pskip=0 / chroma_qp_offset=-3 / threads=6 / lookahead_threads=1 / sliced_threads=0 / nr=0 / decimate=0 / interlaced=0 / bluray_compat=0 / constrained_intra=0 / bframes=11 / b_pyramid=2 / b_adapt=2 / b_bias=0 / direct=3 / weightb=1 / open_gop=1 / weightp=2 / keyint=240 / keyint_min=23 / scenecut=40 / intra_refresh=0 / rc_lookahead=40 / rc=2pass / mbtree=1 / bitrate=2207 / ratetol=1.0 / qcomp=0.60 / qpmin=0 / qpmax=69 / qpstep=4 / cplxblur=20.0 / qblur=0.5 / vbv_maxrate=14000 / vbv_bufsize=14000 / nal_hrd=none / filler=0 / ip_ratio=1.40 / aq=1:1.00
Language : Russian
Default : Yes
Forced : No

Audio #1
ID : 2
Format : AC-3
Format/Info : Audio Coding 3
Codec ID : A_AC3
Duration : 1 h 22 min
Bit rate mode : Constant
Bit rate : 448 kb/s
Channel(s) : 6 channels
Channel positions : Front: L C R, Side: L R, LFE
Sampling rate : 48.0 kHz
Frame rate : 31.250 FPS (1536 SPF)
Bit depth : 16 bits
Compression mode : Lossy
Stream size : 265 MiB (14%)
Title : DVO | Кубик в кубе
Language : Russian
Service kind : Complete Main
Default : Yes
Forced : No

Audio #2
ID : 3
Format : AC-3
Format/Info : Audio Coding 3
Codec ID : A_AC3
Duration : 1 h 22 min
Bit rate mode : Constant
Bit rate : 448 kb/s
Channel(s) : 6 channels
Channel positions : Front: L C R, Side: L R, LFE
Sampling rate : 48.0 kHz
Frame rate : 31.250 FPS (1536 SPF)
Bit depth : 16 bits
Compression mode : Lossy
Stream size : 265 MiB (14%)
Title : Original
Language : English
Service kind : Complete Main
Default : No
Forced : No

Text #1
ID : 4
Format : UTF-8
Codec ID : S_TEXT/UTF8
Codec ID/Info : UTF-8 Plain Text
Duration : 1 h 18 min
Bit rate : 1 b/s
Count of elements : 20
Stream size : 865 Bytes (0%)
Title : forced
Language : Russian
Default : Yes
Forced : Yes

Text #2
ID : 5
Format : UTF-8
Codec ID : S_TEXT/UTF8
Codec ID/Info : UTF-8 Plain Text
Duration : 1 h 21 min
Bit rate : 116 b/s
Count of elements : 1721
Stream size : 69.8 KiB (0%)
Title : Russian
Language : Russian
Default : No
Forced : No

Text #3
ID : 6
Format : UTF-8
Codec ID : S_TEXT/UTF8
Codec ID/Info : UTF-8 Plain Text
Duration : 1 h 21 min
Bit rate : 95 b/s
Count of elements : 1852
Stream size : 57.4 KiB (0%)
Title : English
Language : English
Default : No
Forced : No

Text #4
ID : 7
Format : UTF-8
Codec ID : S_TEXT/UTF8
Codec ID/Info : UTF-8 Plain Text
Duration : 1 h 21 min
Bit rate : 103 b/s
Count of elements : 2001
Stream size : 61.9 KiB (0%)
Title : English [SDH]
Language : English
Default : No
Forced : No

Menu
00:00:00.000 : :Глава 1
00:06:24.125 : :Глава 2
00:13:20.083 : :Глава 3
00:20:58.833 : :Глава 4
00:28:57.292 : :Глава 5
00:37:15.292 : :Глава 6
00:44:38.667 : :Глава 7
00:51:58.375 : :Глава 8
00:59:21.375 : :Глава 9
01:07:15.917 : :Глава 10
01:14:59.542 : :Глава 11
Скриншоты

Релиз от:
 

Вложения

  • 21,2 KB Просмотры: 0
    Личеров 0
    Сидеров 0
    Файлов 1
    Объем 1,8 GB

Привет!

Мы группа людей которые решили помочь другим в решении их проблем, а так же пользователям с поиском самых свежих и качественных инфопродуктов. За 4 с небольшим месяца мы создали этот форум на который заходят ежедневно тысячи человек и посещаемость постоянно растёт. Мы создали панель лицензирования для защиты PHP скриптов от воровства и SEO панель для мониторинга наших сайтов и выбора верной стратегии их развития. Мы надеемся что то что мы создали пригодится Вам и возможно Вы поможете нам развиваться и совершенствоваться вместе с Вами.

Статистика форума

Темы
404.589
Сообщения
461.466
Пользователи
80.281
Новый пользователь
MrProUk

Приложения форума для iOS и Android


У ркн там нет власти ;)
Приватные разговоры
Помощь Пользователи
    Вы не присоединились ни к одной комнате.